(Классика в современной обработке) Rondo Veneziano - Stagioni Di Venezia - 1992, APE (image+.cue)


 

[Цитировать]

Rondo Veneziano - Stagioni Di Venezia
Жанр: Классика в современной обработке
Год выпуска диска: 1992
Производитель диска: Germany (BMG Ariola Media GMBH)
Аудио кодек: APE
Тип рипа: image+.cue
Битрейт: lossless
Продолжительность: 48:51
Трэклист:
1.Stagioni Di Venezia
2.Riverberi
3.Il Palio
4.Antichi Ricordi
5.Via Vai
6.Corteo Dei Dogi
7.Rondo Veneziano
8.Burano
9.Voli E Vele
10.Ponte Dei Sospiri
11.Nonna Favola
12.Murano
13.Nuvole A Colori
14.La Serenissima

Отчет EAC

Exact Audio Copy V0.99 prebeta 4 from 23. January 2008
Отчёт EAC об извлечении, выполненном 15. ноября 2009, 20:15
Rondу Veneziano / Stagioni di Venezia
Дисковод: _NEC DVD_RW ND-1300A Adapter: 4 ID: 0
Режим чтения : Достоверность
Использование точного потока : Да
Отключение кэша аудио : Да
Использование указателей C2 : Нет
Коррекция смещения при чтении : 48
Способность читать области Lead-in и Lead-out : Нет
Заполнение пропущенных сэмплов тишиной : Да
Удаление блоков с тишиной в начале и конце : Нет
При вычислениях CRC использовались нулевые сэмплы : Да
Интерфейс : Установленный внешний ASPI-интерфейс
Выходной формат : Внутренние WAV-операции
Формат сэмплов : 44.100 Гц; 16 бит; стерео
TOC извлечённого CD
Трек | Старт | Длительность | Начальный сектор | Конечный сектор
---------------------------------------------------------------------
1 | 0:00.33 | 3:13.67 | 33 | 14574
2 | 3:14.25 | 3:14.55 | 14575 | 29179
3 | 6:29.05 | 3:04.13 | 29180 | 42992
4 | 9:33.18 | 3:51.40 | 42993 | 60357
5 | 13:24.58 | 3:21.57 | 60358 | 75489
6 | 16:46.40 | 4:34.43 | 75490 | 96082
7 | 21:21.08 | 3:32.02 | 96083 | 111984
8 | 24:53.10 | 3:21.33 | 111985 | 127092
9 | 28:14.43 | 3:08.25 | 127093 | 141217
10 | 31:22.68 | 4:17.10 | 141218 | 160502
11 | 35:40.03 | 2:57.62 | 160503 | 173839
12 | 38:37.65 | 3:24.40 | 173840 | 189179
13 | 42:02.30 | 4:34.48 | 189180 | 209777
14 | 46:37.03 | 2:14.67 | 209778 | 219894
Характеристики диапазона извлечения и сообщения об ошибках
Выбранный диапазон
Имя файла F:\Диск G\Music MP-3\Dopty\Раздачи\stagioni\Rondу Veneziano - Stagioni di Venezia.wav
Пиковый уровень 99.0 %
Качество диапазона 100.0 %
CRC копии 467461D3
Копирование... OK
Ошибок не произошло
AccurateRip: сводка
Трек 1 точное извлечение (доверие 8) [99BDE844]
Трек 2 точное извлечение (доверие 8) [A0D4FA71]
Трек 3 точное извлечение (доверие 8) [C678779C]
Трек 4 точное извлечение (доверие 8) [26FF79C5]
Трек 5 точное извлечение (доверие 8) [C25FF928]
Трек 6 точное извлечение (доверие 8) [6C80F461]
Трек 7 точное извлечение (доверие 8) [5309998A]
Трек 8 точное извлечение (доверие 8) [EBB48DC0]
Трек 9 точное извлечение (доверие 7) [53FAE346]
Трек 10 точное извлечение (доверие 7) [A6A01EAB]
Трек 11 точное извлечение (доверие 7) [A0128FE8]
Трек 12 точное извлечение (доверие 7) [4A0928FA]
Трек 13 точное извлечение (доверие 8) [694D50AE]
Трек 14 точное извлечение (доверие 8) [FB16F748]
Все треки извлечены точно
Конец отчёта



Показать сообщения:    

Текущее время: 10-Дек 17:48

Часовой пояс: UTC + 3


Вы не можете начинать темы
Вы не можете отвечать на сообщения
Вы не можете редактировать свои сообщения
Вы не можете удалять свои сообщения
Вы не можете голосовать в опросах
Вы не можете прикреплять файлы к сообщениям
Вы не можете скачивать файлы