(Классика в современной обработке) Rondo Veneziano-Odissea Veneziana - 1985, APE (image+.cue)


 

[Цитировать]

Rondo Veneziano-Odissea Veneziana
Жанр: Классика в современной обработке
Год выпуска диска: 1985
Производитель диска: Germany (BMG Music)
Аудио кодек: APE
Тип рипа: image+.cue
Битрейт: lossless
Продолжительность: 45:39
Трэклист:
1.Odissea Veneziana
2.Sogno Veneziano
3.Bettina
4.Preludio All'amore
5.L'Orientale
6.Interludio
7.Cecilia
8.Casanova
9.Donna Lucrezia
10.Nuovi Orizzonti
11.Nostalgia Di Venezia
12.Rosaura
13.Giardino Incantato
14.Rosso Veneziano

Отчет EAC

Exact Audio Copy V0.99 prebeta 4 from 23. January 2008
Отчёт EAC об извлечении, выполненном 15. ноября 2009, 18:07
Rondт Veneziano / Odissea Veneziana
Дисковод: _NEC DVD_RW ND-1300A Adapter: 4 ID: 0
Режим чтения : Достоверность
Использование точного потока : Да
Отключение кэша аудио : Да
Использование указателей C2 : Нет
Коррекция смещения при чтении : 48
Способность читать области Lead-in и Lead-out : Нет
Заполнение пропущенных сэмплов тишиной : Да
Удаление блоков с тишиной в начале и конце : Нет
При вычислениях CRC использовались нулевые сэмплы : Да
Интерфейс : Установленный внешний ASPI-интерфейс
Выходной формат : Внутренние WAV-операции
Формат сэмплов : 44.100 Гц; 16 бит; стерео
TOC извлечённого CD
Трек | Старт | Длительность | Начальный сектор | Конечный сектор
---------------------------------------------------------------------
1 | 0:00.32 | 2:36.73 | 32 | 11804
2 | 2:37.30 | 3:17.62 | 11805 | 26641
3 | 5:55.17 | 3:10.05 | 26642 | 40896
4 | 9:05.22 | 2:58.53 | 40897 | 54299
5 | 12:04.00 | 3:41.60 | 54300 | 70934
6 | 15:45.60 | 3:16.10 | 70935 | 85644
7 | 19:01.70 | 3:43.40 | 85645 | 102409
8 | 22:45.35 | 3:08.15 | 102410 | 116524
9 | 25:53.50 | 3:00.17 | 116525 | 130041
10 | 28:53.67 | 3:14.68 | 130042 | 144659
11 | 32:08.60 | 2:29.55 | 144660 | 155889
12 | 34:38.40 | 2:38.67 | 155890 | 167806
13 | 37:17.32 | 5:14.25 | 167807 | 191381
14 | 42:31.57 | 3:05.63 | 191382 | 205319
Характеристики диапазона извлечения и сообщения об ошибках
Выбранный диапазон
Имя файла F:\Диск G\Music MP-3\Dopty\Раздачи\Odissea Veneziano\Rondт Veneziano - Odissea Veneziana.wav
Пиковый уровень 89.2 %
Качество диапазона 100.0 %
CRC копии B2BEA9B3
Копирование... OK
Ошибок не произошло
AccurateRip: сводка
Трек 1 точность не определена (достоверность 3) [61517399], AccurateRip вернул [93CEA4CC]
Трек 2 точность не определена (достоверность 3) [678980F4], AccurateRip вернул [69F020FC]
Трек 3 точность не определена (достоверность 3) [1B81C3F8], AccurateRip вернул [66DDC327]
Трек 4 точность не определена (достоверность 3) [A38BDDA1], AccurateRip вернул [2FDD7EFD]
Трек 5 точность не определена (достоверность 3) [13F247F4], AccurateRip вернул [EF39F807]
Трек 6 точность не определена (достоверность 3) [9A313B6D], AccurateRip вернул [7E79E148]
Трек 7 точность не определена (достоверность 3) [56217CFE], AccurateRip вернул [5E770C41]
Трек 8 точность не определена (достоверность 3) [69DE912A], AccurateRip вернул [8576975A]
Трек 9 точность не определена (достоверность 3) [C3589ACE], AccurateRip вернул [4A685499]
Трек 10 точность не определена (достоверность 3) [8E814372], AccurateRip вернул [B8AC79E2]
Трек 11 точность не определена (достоверность 2) [4942013E], AccurateRip вернул [9B4AAD4B]
Трек 12 точность не определена (достоверность 2) [ABE6B970], AccurateRip вернул [DD55EBCB]
Трек 13 точность не определена (достоверность 2) [C9277DA3], AccurateRip вернул [0FF9AEC5]
Трек 14 точность не определена (достоверность 2) [80931863], AccurateRip вернул [136F8377]
Ни один трек не прошёл проверки на точность
В вашей базе может быть иной вариант штамповки диска
Конец отчёта



Показать сообщения:    

Текущее время: 03-Дек 01:20

Часовой пояс: UTC + 3


Вы не можете начинать темы
Вы не можете отвечать на сообщения
Вы не можете редактировать свои сообщения
Вы не можете удалять свои сообщения
Вы не можете голосовать в опросах
Вы не можете прикреплять файлы к сообщениям
Вы не можете скачивать файлы