(Classical) Vanessa Mae - The Classical Album 1 (Enhanced CD version) - 1997, APE (image+.cue), lossless


 

[Цитировать]

Vanessa Mae - Classical Album 1 (Enhanced CD version,1997)
Жанр: Classical
Год выпуска диска: 1997
Производитель диска: EMI (Original CD, Limited Edition)
Аудио кодек: APE (Monkey's Audio, Extra High Compression)
Тип рипа: image+.cue
Битрейт аудио: lossless
Продолжительность: 60:35
Трэклист:
Johann Sebastian Bach (1685-1750)
Partita No. 3 in E for Solo Violin
01. I. Preludio 3:53
02. II. Loure 3:13
03. III. Gavotte En Rondeau 3:05
04. IV. Menuet I 1:16
05. V. Menuet II 1:25
06. VI. Bouree 1:15
07. VII. Gigue 1:35
Johannes Brahms (1833-1897)
08. Scherzo in C Minor for Violin and Piano 5:28
Ludwig van Beethoven (1770-1827)
09. Beethoven: Romance No. 2 in F for Violin and Orchestra Op. 50 8:31
Max Bruch (1838-1920)
Scottish Fantasy for Violin and Orchestra Op. 46
10. 1st Movement Introduction - Grave 3:17
11. Adagio Cantabile (on 'Thro' the Wood Laddie' / `Auld Rob Morris') 4:04
12. 2nd Movement - Allegro (on 'Hey the Dusty Miller') 5:26
13. 3rd Movement - Adagio 0:59
14. Andante Sostenuto (on 'I'm a Doun for Lack O'Johnnie') 5:31
15. 4th Movement, Finale - Allegro Guerriero (on 'Scots Wha Hae') 7:09
Vanessa-Mae
Traditional Scottish Folk Song
16. 'I'm a Doun for Lack O'Johnnie (A Little Scottish Fantasy) 4:28

Лог EAC / EAC rip log + AccurateRip info

Exact Audio Copy V0.99 prebeta 5 from 4. May 2009
Отчёт EAC об извлечении, выполненном 9. ноября 2009, 14:55
Vanessa-Mae / The Classical Album 1
Дисковод: Optiarc DVD RW AD-5590A Adapter: 0 ID: 0
Режим чтения : Достоверность
Использование точного потока : Да
Отключение кэша аудио : Да
Использование указателей C2 : Нет
Коррекция смещения при чтении : 48
Способность читать области Lead-in и Lead-out : Нет
Заполнение пропущенных сэмплов тишиной : Да
Удаление блоков с тишиной в начале и конце : Нет
При вычислениях CRC использовались нулевые сэмплы : Да
Интерфейс : Встроенный Win32-интерфейс для Win NT/2000
Выходной формат : Внутренние WAV-операции
Формат сэмплов : 44.100 Гц; 16 бит; стерео
TOC извлечённого CD
Трек | Старт | Длительность | Начальный сектор | Конечный сектор
---------------------------------------------------------------------
1 | 0:00.00 | 3:52.65 | 0 | 17464
2 | 3:52.65 | 3:13.16 | 17465 | 31955
3 | 7:06.06 | 3:04.45 | 31956 | 45800
4 | 10:10.51 | 1:15.50 | 45801 | 51475
5 | 11:26.26 | 1:24.60 | 51476 | 57835
6 | 12:51.11 | 1:15.10 | 57836 | 63470
7 | 14:06.21 | 1:35.35 | 63471 | 70630
8 | 15:41.56 | 5:27.60 | 70631 | 95215
9 | 21:09.41 | 8:30.55 | 95216 | 133520
10 | 29:40.21 | 3:17.13 | 133521 | 148308
11 | 32:57.34 | 4:04.17 | 148309 | 166625
12 | 37:01.51 | 5:26.25 | 166626 | 191100
13 | 42:28.01 | 0:59.05 | 191101 | 195530
14 | 43:27.06 | 5:31.23 | 195531 | 220378
15 | 48:58.29 | 7:08.60 | 220379 | 252538
16 | 56:07.14 | 4:28.13 | 252539 | 272651
17 | 63:07.27 | 8:25.22 | 284052 | 321948
Характеристики диапазона извлечения и сообщения об ошибках
Выбранный диапазон
Имя файла E:\tmp\Vanessa-Mae - The Classical Album 1.wav
Пиковый уровень 100.0 %
Качество диапазона 99.9 %
CRC копии F8AF1D66
Копирование... OK
Ошибок не произошло
AccurateRip: сводка
Трек 1 нет в базе данных
Трек 2 нет в базе данных
Трек 3 нет в базе данных
Трек 4 нет в базе данных
Трек 5 нет в базе данных
Трек 6 нет в базе данных
Трек 7 нет в базе данных
Трек 8 нет в базе данных
Трек 9 нет в базе данных
Трек 10 нет в базе данных
Трек 11 нет в базе данных
Трек 12 нет в базе данных
Трек 13 нет в базе данных
Трек 14 нет в базе данных
Трек 15 нет в базе данных
Трек 16 нет в базе данных
Ни одного трека нет в базе AccurateRip
Конец отчёта

Проверка лосслесс-достоверности / Audio authenticity check

fooCDtect - foobar2000 + auCDtect, baralgin.
auCDtect: CD records authenticity detector, version 0.8.2
Copyright (c) 2004 Oleg Berngardt. All rights reserved.
Copyright (c) 2004 Alexander Djourik. All rights reserved.
mode: 0
=======================================================
Track: Vanessa-Mae - 01 - JS Bach- Partita No 3- I. Preludio
Quality: CDDA, 100%
=======================================================
Track: Vanessa-Mae - 02 - JS Bach- Partita No 3- II. Loure
Quality: CDDA, 100%
=======================================================
Track: Vanessa-Mae - 03 - JS Bach- Partita No 3- III. Gavotte En Rondeau
Quality: CDDA, 100%
=======================================================
Track: Vanessa-Mae - 04 - JS Bach- Partita No 3- IV. Menuet I
Quality: CDDA, 100%
=======================================================
Track: Vanessa-Mae - 05 - JS Bach- Partita No 3- V. Menuet II
Quality: CDDA, 100%
=======================================================
Track: Vanessa-Mae - 06 - JS Bach- Partita No 3- VI. Bouree
Quality: CDDA, 100%
=======================================================
Track: Vanessa-Mae - 07 - JS Bach- Partita No 3- VII. Gigue
Quality: CDDA, 100%
=======================================================
Track: Vanessa-Mae - 08 - Brahms- Scherzo in C Minor for Violin and Piano
Quality: MPEG, 80%
=======================================================
Track: Vanessa-Mae - 09 - Beethoven- Romance No. 2 in F for Violin and Orchestra Op. 50
Quality: CDDA, 100%
=======================================================
Track: Vanessa-Mae - 10 - Bruch- Scottish Fantasy for Violin and Orchestra Op. 46- 1st Movement Introduction - Grave
Quality: CDDA, 100%
=======================================================
Track: Vanessa-Mae - 11 - Bruch- Scottish Fantasy for Violin and Orchestra Op. 46- Adagio Cantabile (on 'Thro' the Wood Laddie' - `Auld Rob Morris')
Quality: CDDA, 100%
=======================================================
Track: Vanessa-Mae - 12 - Bruch- Scottish Fantasy for Violin and Orchestra Op. 46- 2nd Movement - Allegro (on 'Hey the Dusty Miller')
Quality: CDDA, 100%
=======================================================
Track: Vanessa-Mae - 13 - Bruch- Scottish Fantasy for Violin and Orchestra Op. 46- 3rd Movement - Adagio
Quality: CDDA, 100%
=======================================================
Track: Vanessa-Mae - 14 - Bruch- Scottish Fantasy for Violin and Orchestra Op. 46- Andante Sostenuto (on 'I'm a Doun for Lack O'Johnnie')
Quality: CDDA, 100%
=======================================================
Track: Vanessa-Mae - 15 - Bruch- Scottish Fantasy for Violin and Orchestra Op. 46- 4th Movement, Finale - Allegro Guerriero (on 'Scots Wha Hae')
Quality: CDDA, 100%
=======================================================
Track: Vanessa-Mae - 16 - Vanessa-Mae- Traditional Scottish Folk Song- 'I'm a Doun for Lack O'Johnnie (A Little Scottish Fantasy)
Quality: CDDA, 100%
=======================================================

Снимок спектра / Spectrum Snapshot

Информация о видео-секции CD:
Формат: MOV
Видео кодек: Cinepack
Аудио кодек: PCM

Общая информация

Complete name : EPK.MOV
Format : QuickTime
Format/Info : Original Apple specifications
File size : 51.6 MiB
Duration : 4mn 35s
Overall bit rate : 1 574 Kbps
Encoded date : UTC 1996-10-24 17:23:01
Tagged date : UTC 1996-10-24 17:24:55
Writing library : Apple QuickTime

Видео-кодек: тех. инфо

Format : Cinepack
Codec ID : cvid
Duration : 4mn 35s
Bit rate mode : Variable
Bit rate : 1 220 Kbps
Width : 320 pixels
Height : 240 pixels
Display aspect ratio : 4:3
Frame rate mode : Constant
Frame rate : 15.000 fps
Bits/(Pixel*Frame) : 1.059
Stream size : 40.0 MiB (78%)
Language : English
Encoded date : UTC 1996-10-19 15:06:23
Tagged date : UTC 1996-10-24 17:24:55

Аудио-кодек: тех. инфо

Format : PCM
Format settings, Endianness : Big
Format settings, Sign : Signed
Codec ID : twos
Duration : 4mn 34s
Bit rate mode : Constant
Bit rate : 352.8 Kbps
Channel(s) : 1 channel
Sampling rate : 22.05 KHz
Resolution : 16 bits
Stream size : 11.6 MiB (22%)
Language : English
Encoded date : UTC 1996-10-19 15:06:23
Tagged date : UTC 1996-10-24 17:24:55

Скриншоты


Дополнительно :Рип с официальной, т.н. "Enhanced CD"-версии альбома 1996-го года.Секция данных находится в отдельной папке DATA.
Информация о диске с сайта Ванессы : "A limited edition of 'The Classical Album 1'. The video documentary on this Multi
media CD-ROM features interviews, facts, quotes, favorites, her TV and concert appearances, and is a quick round up of the highlights in her international career."



Показать сообщения:    

Текущее время: 10-Дек 15:49

Часовой пояс: UTC + 3


Вы не можете начинать темы
Вы не можете отвечать на сообщения
Вы не можете редактировать свои сообщения
Вы не можете удалять свои сообщения
Вы не можете голосовать в опросах
Вы не можете прикреплять файлы к сообщениям
Вы не можете скачивать файлы