(Traditional Electronic) Wendy Carlos - Switched-On Bach 2000 (1992) (CD-80323) - FLAC (tracks+.cue), lossless


 

[Цитировать]

(Traditional Electronic) Wendy Carlos - Switched-On Bach 2000 (1992) (CD-80323) [FLAC]- Жанр: Traditional Electronic
Год выпуска диска: 1992
Производитель диска: USA ("TELARC")
Аудио кодек: FLAC
Тип рипа: tracks+.cue
Битрейт аудио: lossless
Продолжительность: 00:53:50
Трэклист:
1. Happy 25th, S-OB 0:40
2. Sinfonia in D major (from Cantata No. 29) - 3:35
3. Air on a G String (from Suite in D major) - 3:15
4. Two Part Invention in F major - 0:47
5. Two Part Invention in B-flat major - 1:22
6. Two Part Invention in D minor - 0:59
7. Jesu, Joy of Man's Desiring (from Cantata No. 147) - 3:32
8. The Well-Tempered Clavier: Prelude No. 7 in E-flat major - 5:41
9. The Well-Tempered Clavier: Fugue No. 7 in E-flat major - 1:47
10. The Well-Tempered Clavier: Prelude No. 2 in C minor - 1:32
11. The Well-Tempered Clavier: Fugue No. 2 in C minor - 1:32
12. Wachet Auf (from Cantata No. 140) - 4:44
13. Brandenburg Concerto No. 3 in G major (I. Allegro) - 6:48
14. Brandenburg Concerto No. 3 in G major (II. Adagio) - 2:36
15. Brandenburg Concerto No. 3 in G major (III. Allegro) - 5:47
16. Toccata & Fugue in D minor - 9:02
Доп. информация:
Wendy Carlos попыталась реинкарнировать свой бестселлер "Switched-On Bach" 1968 года с помощью новых, теперь уже цифровых технологий звукоизвлечения. На страницах 26-27 буклета есть подробный список использовавшегося при записи оборудования.
Диск записан в Dolby Surround.
Замечания к раздаче
Я специально сделал потрековый rip диска, чтобы сомневающиеся личеры могли послушать композиции выборочно.
В раздачу также включены сканы этикетки диска, всех страниц буклета и вставки в коробку в разрешении 300dpi.

Лог EAC

Exact Audio Copy V0.99 prebeta 4 from 23. January 2008
EAC extraction logfile from 4. November 2009, 10:18
Wendy Carlos / Switched-On Bach 2000
Used drive : TEAC CD-W58E Adapter: 3 ID: 1
Read mode : SecureUtilize accurate stream : YesDefeat audio cache : YesMake use of C2 pointers : No
Read offset correction : 685Overread into Lead-In and Lead-Out : NoFill up missing offset samples with silence : YesDelete leading and trailing silent blocks : NoNull samples used in CRC calculations : YesUsed interface : Native Win32 interface for Win NT & 2000Gap handling : Appended to previous track
Used output format : Internal WAV RoutinesSample format : 44.100 Hz; 16 Bit; Stereo
TOC of the extracted CD
Track | Start | Length | Start sector | End sector --------------------------------------------------------- 1 | 0:00.00 | 0:40.02 | 0 | 3001 2 | 0:40.02 | 3:35.08 | 3002 | 19134 3 | 4:15.10 | 3:15.15 | 19135 | 33774 4 | 7:30.25 | 0:47.07 | 33775 | 37306 5 | 8:17.32 | 1:22.65 | 37307 | 43521 6 | 9:40.22 | 0:59.10 | 43522 | 47956 7 | 10:39.32 | 3:32.43 | 47957 | 63899 8 | 14:12.00 | 5:41.62 | 63900 | 89536 9 | 19:53.62 | 1:47.53 | 89537 | 97614 10 | 21:41.40 | 1:32.25 | 97615 | 104539 11 | 23:13.65 | 1:32.22 | 104540 | 111461 12 | 24:46.12 | 4:44.20 | 111462 | 132781 13 | 29:30.32 | 6:48.43 | 132782 | 163424 14 | 36:19.00 | 2:36.15 | 163425 | 175139 15 | 38:55.15 | 5:47.50 | 175140 | 201214 16 | 44:42.65 | 9:01.60 | 201215 | 241849
Track 1
Filename I:\Loseless\Wendy Carlos - Switched-On Bach 2000 (1992) (CD-80323) [FLAC]\01 - Happy 25th, S-OB.wav
Pre-gap length 0:00:02.00
Peak level 69.8 % Track quality 100.0 % Test CRC EB48A737 Copy CRC EB48A737 Accurately ripped (confidence 7) [FE0D4703] Copy OK
Track 2
Filename I:\Loseless\Wendy Carlos - Switched-On Bach 2000 (1992) (CD-80323) [FLAC]\02 - Sinfonia in D major.wav
Pre-gap length 0:00:00.30
Peak level 100.0 % Track quality 100.0 % Test CRC 8BF49402 Copy CRC 8BF49402 Accurately ripped (confidence 7) [B92C8D7D] Copy OK
Track 3
Filename I:\Loseless\Wendy Carlos - Switched-On Bach 2000 (1992) (CD-80323) [FLAC]\03 - Air on a G String.wav
Pre-gap length 0:00:00.35
Peak level 65.6 % Track quality 100.0 % Test CRC 1FB71FE8 Copy CRC 1FB71FE8 Accurately ripped (confidence 7) [F7D5D484] Copy OK
Track 4
Filename I:\Loseless\Wendy Carlos - Switched-On Bach 2000 (1992) (CD-80323) [FLAC]\04 - Two Part Invention in F major.wav
Pre-gap length 0:00:00.50
Peak level 95.2 % Track quality 100.0 % Test CRC B57D4625 Copy CRC B57D4625 Accurately ripped (confidence 7) [504F3D2F] Copy OK
Track 5
Filename I:\Loseless\Wendy Carlos - Switched-On Bach 2000 (1992) (CD-80323) [FLAC]\05 - Two Part Invention in B-flat major.wav
Peak level 93.4 % Track quality 100.0 % Test CRC 41DA95F4 Copy CRC 41DA95F4 Accurately ripped (confidence 7) [94B50F27] Copy OK
Track 6
Filename I:\Loseless\Wendy Carlos - Switched-On Bach 2000 (1992) (CD-80323) [FLAC]\06 - Two Part Invention in D minor.wav
Pre-gap length 0:00:00.07
Peak level 76.1 % Track quality 100.0 % Test CRC 1D32D42D Copy CRC 1D32D42D Accurately ripped (confidence 7) [50E12364] Copy OK
Track 7
Filename I:\Loseless\Wendy Carlos - Switched-On Bach 2000 (1992) (CD-80323) [FLAC]\07 - Jesu, Joy of Man's Desiring.wav
Pre-gap length 0:00:00.27
Peak level 73.3 % Track quality 100.0 % Test CRC BAF94DF1 Copy CRC BAF94DF1 Accurately ripped (confidence 7) [58E5EBBE] Copy OK
Track 8
Filename I:\Loseless\Wendy Carlos - Switched-On Bach 2000 (1992) (CD-80323) [FLAC]\08 - Prelude No. 7 in E-flat major.wav
Pre-gap length 0:00:00.25
Peak level 95.9 % Track quality 100.0 % Test CRC 3AC99CD2 Copy CRC 3AC99CD2 Accurately ripped (confidence 7) [91ADD2D7] Copy OK
Track 9
Filename I:\Loseless\Wendy Carlos - Switched-On Bach 2000 (1992) (CD-80323) [FLAC]\09 - Fugue No. 7 in E-flat major.wav
Peak level 61.5 % Track quality 100.0 % Test CRC 54315693 Copy CRC 54315693 Accurately ripped (confidence 7) [5518B04B] Copy OK
Track 10
Filename I:\Loseless\Wendy Carlos - Switched-On Bach 2000 (1992) (CD-80323) [FLAC]\10 - Prelude No. 2 in C minor.wav
Pre-gap length 0:00:00.15
Peak level 98.7 % Track quality 100.0 % Test CRC E8704150 Copy CRC E8704150 Accurately ripped (confidence 7) [D413425C] Copy OK
Track 11
Filename I:\Loseless\Wendy Carlos - Switched-On Bach 2000 (1992) (CD-80323) [FLAC]\11 - Fugue No. 2 in C minor.wav
Peak level 89.3 % Track quality 99.8 % Test CRC AAD89480 Copy CRC AAD89480 Accurately ripped (confidence 7) [E641CC73] Copy OK
Track 12
Filename I:\Loseless\Wendy Carlos - Switched-On Bach 2000 (1992) (CD-80323) [FLAC]\12 - Wachet Auf.wav
Pre-gap length 0:00:00.12
Peak level 63.6 % Track quality 99.9 % Test CRC 097D2474 Copy CRC 097D2474 Accurately ripped (confidence 7) [BDE56549] Copy OK
Track 13
Filename I:\Loseless\Wendy Carlos - Switched-On Bach 2000 (1992) (CD-80323) [FLAC]\13 - Brandenburg Concerto No. 3 in G major (I. Allegro).wav
Pre-gap length 0:00:00.27
Peak level 100.0 % Track quality 100.0 % Test CRC 03D903D3 Copy CRC 03D903D3 Accurately ripped (confidence 7) [173A9BEB] Copy OK
Track 14
Filename I:\Loseless\Wendy Carlos - Switched-On Bach 2000 (1992) (CD-80323) [FLAC]\14 - Brandenburg Concerto No. 3 in G major (II. Adagio).wav
Pre-gap length 0:00:00.18
Peak level 52.8 % Track quality 100.0 % Test CRC F370727E Copy CRC F370727E Accurately ripped (confidence 7) [062C6FC5] Copy OK
Track 15
Filename I:\Loseless\Wendy Carlos - Switched-On Bach 2000 (1992) (CD-80323) [FLAC]\15 - Brandenburg Concerto No. 3 in G major (III. Allegro).wav
Peak level 100.0 % Track quality 99.9 % Test CRC 6C140491 Copy CRC 6C140491 Accurately ripped (confidence 7) [FE857605] Copy OK
Track 16
Filename I:\Loseless\Wendy Carlos - Switched-On Bach 2000 (1992) (CD-80323) [FLAC]\16 - Toccata & Fugue in D minor.wav
Pre-gap length 0:00:00.18
Peak level 100.0 % Track quality 100.0 % Test CRC 9F2BC442 Copy CRC 9F2BC442 Accurately ripped (confidence 6) [2F365A51] Copy OK
All tracks accurately ripped
No errors occurred
End of status report

Другие раздачи Wendy Carlos

Wendy Carlos - By Request (1975) http://teatrix.ru/viewtopic.php?t=8584



Показать сообщения:    

Текущее время: 04-Дек 00:44

Часовой пояс: UTC + 3


Вы не можете начинать темы
Вы не можете отвечать на сообщения
Вы не можете редактировать свои сообщения
Вы не можете удалять свои сообщения
Вы не можете голосовать в опросах
Вы не можете прикреплять файлы к сообщениям
Вы не можете скачивать файлы