(Orchestral Symphonic Rock) Symphonic-Rock-Orchestra Vienna - Classic Beatles - 1993, FLAC (image+.cue), lossless


 

[Цитировать]

Symphonic-Rock-Orchestra Vienna - Classic Beatles
Жанр: Orchestral Symphonic Rock
Год выпуска диска: 1993
Производитель диска: Швейцария
Аудио кодек: FLAC
Тип рипа: image+.cue
Битрейт аудио: lossless
Продолжительность: 55:27
Трэклист:
1 Yesterday/ Something 6:51
2 Eleanor Rigby / Canґt Buy Me Love 5:34
3 Love Me Do / Eight Days A Week 5:52
4 And I Love Her / Michelle 5:46
5 Norwegian Wood / The Fool on The Hill 5:54
6 Here There And Everywhere / Hey Jude 7:11
7 A Hard Dayґs Night / All My Loving 6:26
8 When Iґm Sixty-Four / Yellow Submarine 6:18
9 Every Little Thing / Got To Get You Into My Life 5:34

Отчёт EAC

Exact Audio Copy V0.99 prebeta 4 from 23. January 2008
Отчёт EAC об извлечении, выполненном 24. мая 2009, 15:35
Symphonic-Rock-Orchestra Vienna / Classic Beatles
Дисковод: Optiarc DVD RW AD-7201S Adapter: 1 ID: 0
Режим чтения : Достоверность
Использование точного потока : Да
Отключение кэша аудио : Да
Использование указателей C2 : Нет
Коррекция смещения при чтении : 48
Способность читать области Lead-in и Lead-out : Нет
Заполнение пропущенных сэмплов тишиной : Да
Удаление блоков с тишиной в начале и конце : Нет
При вычислениях CRC использовались нулевые сэмплы : Да
Интерфейс : Установленный внешний ASPI-интерфейс
Выходной формат : Пользовательский кодировщик
Выбранный битрейт : 1024 kBit/s
Качество : Высокий
Добавление ID3-тэга : Нет
Утилита сжатия : C:\Program Files\Exact Audio Copy\FLAC\FLAC.EXE
Дополнительные параметры : -6 -V -T "ARTIST=%a" -T "TITLE=%t" -T "ALBUM=%g" -T "DATE=%y" -T "TRACKNUMBER=%n" -T "GENRE=%m" -T "COMMENT=%e" %s -o %d
TOC извлечённого CD
Трек | Старт | Длительность | Начальный сектор | Конечный сектор
---------------------------------------------------------------------
1 | 0:00.00 | 6:51.02 | 0 | 30826
2 | 6:51.02 | 5:34.05 | 30827 | 55881
3 | 12:25.07 | 5:51.55 | 55882 | 82261
4 | 18:16.62 | 5:45.55 | 82262 | 108191
5 | 24:02.42 | 5:54.00 | 108192 | 134741
6 | 29:56.42 | 7:11.03 | 134742 | 167069
7 | 37:07.45 | 6:26.37 | 167070 | 196056
8 | 43:34.07 | 6:18.40 | 196057 | 224446
9 | 49:52.47 | 5:34.48 | 224447 | 249544
Характеристики диапазона извлечения и сообщения об ошибках
Выбранный диапазон
Имя файла D:\Документы\Моя музыка\Symphonic-Rock-Orchestra Vienna\Symphonic-Rock-Orchestra Vienna - Classic Beatles.wav
Пиковый уровень 93.0 %
Качество диапазона 100.0 %
CRC копии E289854F
Копирование... OK
Ошибок не произошло
Конец отчёта



Показать сообщения:    

Текущее время: 10-Дек 06:08

Часовой пояс: UTC + 3


Вы не можете начинать темы
Вы не можете отвечать на сообщения
Вы не можете редактировать свои сообщения
Вы не можете удалять свои сообщения
Вы не можете голосовать в опросах
Вы не можете прикреплять файлы к сообщениям
Вы не можете скачивать файлы