(Классическая музыка в современной обработке) Edvin Marton & Monte Carlo Orchestra - Stradivarius - 2006, FLAC (image+.cue), lossless


 

[Цитировать]

Edvin Marton & Monte Carlo Orchestra - Stradivarius
Жанр: Классическая музыка в современной обработке
Год выпуска диска: 2006
Производитель диска: Made in EU
Аудио кодек: FLAC
Тип рипа: image+.cue
Битрейт аудио: lossless
Продолжительность: 1:07:15
Трэклист:
1.Tosca fantasy /Plushenko Golden Olympic Program/
2.Vivaldi spring
3.Rio Carneval
4.Badinerie
5.Romeo And Juliet
6.Dramatico /Totmianina & Marinin Golden Olympic Program/
7.My love is deep
8.Bellydance
9.Love in venice
10.Tchaikovsky Remix
11.Ibiza
12.C'est La Vie /instrumental Version/
13.Ice Symphony
14.O Sole Mio
15.Crazy Violin
16.Hungarian Rhapsody No.6
17.Fireworks
18.Paganini 5
Bonus Track
19.Edvin Marton & Lou Bega - C'est La Vie
Доп. информация: Данный диск включает дополнительный бонус трек Edvin Marton & Lou Bega - C'est La Vie, а также его инструментальную версию.
CD-Text присутствует
ВНИМАНИЕ! - ТОРРЕНТ ПЕРЕЗАЛИТ(14.10.2009)!
Отчет EAC

скрытый текст

Exact Audio Copy V0.99 prebeta 5 from 4. May 2009
Отчёт EAC об извлечении, выполненном 14. октября 2009, 9:35
Edvin Marton / Stradivarius
Дисковод: _NEC DVD_RW ND-3520AW Adapter: 1 ID: 0
Режим чтения : Достоверность
Использование точного потока : Да
Отключение кэша аудио : Да
Использование указателей C2 : Нет
Коррекция смещения при чтении : 48
Способность читать области Lead-in и Lead-out : Нет
Заполнение пропущенных сэмплов тишиной : Да
Удаление блоков с тишиной в начале и конце : Нет
При вычислениях CRC использовались нулевые сэмплы : Да
Интерфейс : Встроенный Win32-интерфейс для Win NT/2000
Выходной формат : Пользовательский кодировщик
Выбранный битрейт : 768 kBit/s
Качество : Высокий
Добавление ID3-тэга : Нет
Утилита сжатия : C:\Program Files\Exact Audio Copy\FLAC\FLAC.EXE
Дополнительные параметры : -6 -V -T "ARTIST=%a" -T "TITLE=%t" -T "ALBUM=%g" -T "DATE=%y" -T "TRACKNUMBER=%n" -T "GENRE=%m" -T "COMMENT=%e" %s -o %d
TOC извлечённого CD
Трек | Старт | Длительность | Начальный сектор | Конечный сектор
---------------------------------------------------------------------
1 | 0:00.00 | 2:56.09 | 0 | 13208
2 | 2:56.09 | 3:29.09 | 13209 | 28892
3 | 6:25.18 | 3:19.13 | 28893 | 43830
4 | 9:44.31 | 2:51.56 | 43831 | 56711
5 | 12:36.12 | 1:32.50 | 56712 | 63661
6 | 14:08.62 | 3:13.37 | 63662 | 78173
7 | 17:22.24 | 4:53.62 | 78174 | 100210
8 | 22:16.11 | 3:04.70 | 100211 | 114080
9 | 25:21.06 | 4:03.14 | 114081 | 132319
10 | 29:24.20 | 4:42.02 | 132320 | 153471
11 | 34:06.22 | 3:06.18 | 153472 | 167439
12 | 37:12.40 | 2:39.00 | 167440 | 179364
13 | 39:51.40 | 4:42.04 | 179365 | 200518
14 | 44:33.44 | 3:47.11 | 200519 | 217554
15 | 48:20.55 | 3:53.71 | 217555 | 235100
16 | 52:14.51 | 5:02.58 | 235101 | 257808
17 | 57:17.34 | 3:22.37 | 257809 | 272995
18 | 60:39.71 | 3:24.06 | 272996 | 288301
19 | 64:04.02 | 3:11.43 | 288302 | 302669
Характеристики диапазона извлечения и сообщения об ошибках
Выбранный диапазон
Имя файла C:\Edvin Marton - Stradivarius\Edvin Marton - Stradivarius.wav
Пиковый уровень 98.8 %
Качество диапазона 99.9 %
CRC теста 5BF65092
CRC копии 5BF65092
Копирование... OK
Ошибок не произошло
Конец отчёта



Показать сообщения:    

Текущее время: 09-Дек 12:46

Часовой пояс: UTC + 3


Вы не можете начинать темы
Вы не можете отвечать на сообщения
Вы не можете редактировать свои сообщения
Вы не можете удалять свои сообщения
Вы не можете голосовать в опросах
Вы не можете прикреплять файлы к сообщениям
Вы не можете скачивать файлы