(Опера, Классика) Игорь Крутой, Дмитрий Хворостовский - Дежавю (2CD) - 2009, FLAC (image+.cue), lossless


 

[Цитировать]

Игорь Крутой, Дмитрий Хворостовский - Дежавю (2CD)- Жанр: Опера, Классика, Инструментальная
Год выпуска диска: 2009
Производитель диска: Россия
Аудио кодек: FLAC
Тип рипа: image+.cue
Битрейт аудио: lossless
Продолжительность: 59:58.11 + 56:37.49
Источник: @TL@NT
Список песен:
CD1
01. (5:05) Музыка
02. (6:13) Il guerriero buono
03. (6:33) Deja vu
04. (3:41) Canzonetta semplice
05. (5:27) Toi et moi
06. (4:41) Bolero
07. (4:12) Preghiera
08. (5:00) Vis-a-vis
09. (3:55) La strada della vita
10. (4:50) La via
11. (4:55) Nostalgia
12. (5:26) Toi et moi (remix)
CD2
01. (5:50) Vivere
02. (3:57) Gelosia
03. (3:52) Горе-надежда
04. (3:58) Vecchie illusioni
05. (3:34) Doucementm doucement
06. (4:18) Eteri amanti
07. (5:03) Splende
08. (4:11) Хочу быть твоею музыкой
09. (4:00) Mari
10. (4:28) Il bambino che e in me
11. (4:47) Buon giorno, amore!
12. (4:53) I nostri sogni
13. (3:47) Гимн жизни-

Логи EAC и Спектральные анализыCD1 - Лог EAC

Exact Audio Copy V0.99 prebeta 5 from 4. May 2009
Отчёт EAC об извлечении, выполненном 4. октября 2009, 2:10
Игорь Крутой & Дмитрий Хворостовский / Дежавю Часть 1
Дисковод: Optiarc DVD RW AD-5200S Adapter: 1 ID: 1
Режим чтения : ДостоверностьИспользование точного потока : ДаОтключение кэша аудио : ДаИспользование указателей C2 : Нет
Коррекция смещения при чтении : 48Способность читать области Lead-in и Lead-out : НетЗаполнение пропущенных сэмплов тишиной : ДаУдаление блоков с тишиной в начале и конце : НетПри вычислениях CRC использовались нулевые сэмплы : ДаИнтерфейс : Установленный внешний ASPI-интерфейс
Выходной формат : Внутренние WAV-операцииФормат сэмплов : 44.100 Гц; 16 бит; стерео
TOC извлечённого CD
Трек | Старт | Длительность | Начальный сектор | Конечный сектор --------------------------------------------------------------------- 1 | 0:00.00 | 5:04.60 | 0 | 22859 2 | 5:04.60 | 6:13.12 | 22860 | 50846 3 | 11:17.72 | 6:33.16 | 50847 | 80337 4 | 17:51.13 | 3:40.38 | 80338 | 96875 5 | 21:31.51 | 5:27.10 | 96876 | 121410 6 | 26:58.61 | 4:41.08 | 121411 | 142493 7 | 31:39.69 | 4:12.31 | 142494 | 161424 8 | 35:52.25 | 4:59.45 | 161425 | 183894 9 | 40:51.70 | 3:54.71 | 183895 | 201515 10 | 44:46.66 | 4:49.70 | 201516 | 223260 11 | 49:36.61 | 4:55.10 | 223261 | 245395 12 | 54:31.71 | 5:26.15 | 245396 | 269860
Характеристики диапазона извлечения и сообщения об ошибках
Выбранный диапазон
Имя файла G:\R_MUSIC\Игорь Крутой & Дмитрий Хворостовский [2009] Дежавю Часть 1\Игорь Крутой & Дмитрий Хворостовский - Дежавю Часть 1.wav
Пиковый уровень 100.0 % Качество диапазона 100.0 % CRC копии CC771709 Копирование... OK
Ошибок не произошло
AccurateRip: сводка
Трек 1 нет в базе данныхТрек 2 нет в базе данныхТрек 3 нет в базе данныхТрек 4 нет в базе данныхТрек 5 нет в базе данныхТрек 6 нет в базе данныхТрек 7 нет в базе данныхТрек 8 нет в базе данныхТрек 9 нет в базе данныхТрек 10 нет в базе данныхТрек 11 нет в базе данныхТрек 12 нет в базе данных
Ни одного трека нет в базе AccurateRip
Конец отчёта

CD2 - Спектральный анализ


-

CD2 - Лог EAC

Exact Audio Copy V0.99 prebeta 5 from 4. May 2009
Отчёт EAC об извлечении, выполненном 4. октября 2009, 2:31
Игорь Крутой & Дмитрий Хворостовский / Дежавю Часть 2
Дисковод: Optiarc DVD RW AD-5200S Adapter: 1 ID: 1
Режим чтения : ДостоверностьИспользование точного потока : ДаОтключение кэша аудио : ДаИспользование указателей C2 : Нет
Коррекция смещения при чтении : 48Способность читать области Lead-in и Lead-out : НетЗаполнение пропущенных сэмплов тишиной : ДаУдаление блоков с тишиной в начале и конце : НетПри вычислениях CRC использовались нулевые сэмплы : ДаИнтерфейс : Установленный внешний ASPI-интерфейс
Выходной формат : Внутренние WAV-операцииФормат сэмплов : 44.100 Гц; 16 бит; стерео
TOC извлечённого CD
Трек | Старт | Длительность | Начальный сектор | Конечный сектор --------------------------------------------------------------------- 1 | 0:00.00 | 5:49.55 | 0 | 26229 2 | 5:49.55 | 3:57.12 | 26230 | 44016 3 | 9:46.67 | 3:52.25 | 44017 | 61441 4 | 13:39.17 | 3:57.40 | 61442 | 79256 5 | 17:36.57 | 3:34.10 | 79257 | 95316 6 | 21:10.67 | 4:17.45 | 95317 | 114636 7 | 25:28.37 | 5:03.22 | 114637 | 137383 8 | 30:31.59 | 4:11.21 | 137384 | 156229 9 | 34:43.05 | 3:59.57 | 156230 | 174211 10 | 38:42.62 | 4:28.28 | 174212 | 194339 11 | 43:11.15 | 4:46.60 | 194340 | 215849 12 | 47:58.00 | 4:52.67 | 215850 | 237816 13 | 52:50.67 | 3:46.57 | 237817 | 254823
Характеристики диапазона извлечения и сообщения об ошибках
Выбранный диапазон
Имя файла G:\R_MUSIC\Игорь Крутой & Дмитрий Хворостовский [2009] Дежавю Часть 2\Игорь Крутой & Дмитрий Хворостовский - Дежавю Часть 2.wav
Пиковый уровень 99.8 % Качество диапазона 99.9 % CRC копии F76F4951 Копирование... OK
Ошибок не произошло
AccurateRip: сводка
Трек 1 нет в базе данныхТрек 2 нет в базе данныхТрек 3 нет в базе данныхТрек 4 нет в базе данныхТрек 5 нет в базе данныхТрек 6 нет в базе данныхТрек 7 нет в базе данныхТрек 8 нет в базе данныхТрек 9 нет в базе данныхТрек 10 нет в базе данныхТрек 11 нет в базе данныхТрек 12 нет в базе данныхТрек 13 нет в базе данных
Ни одного трека нет в базе AccurateRip
Конец отчёта

CD2 - Спектральный анализ


-
Цитата:Проект-событие, необыкновенное и загадочное. Дмитрий Хворостовский и Игорь Крутой. В записи принимали участие:
Часть первая
Хор Академии хорового искусства, дирижёр А. Петров
Государственный академический камерный оркестр под управлением К. Орбеляна
Гитара - Г. Голубев (4)
Бас-гитара - Larry Hofman (8, 11)
Часть вторая
Хор Академии хорового искусства, дирижёр А. Петров
Государственный академический камерный оркестр под управлением К. Орбеляна
Рояль - И. Крутой
Гитара - С. Шанглёров
Бэк-вокал - А. Ложаева (7)



Показать сообщения:    

Текущее время: 04-Дек 02:54

Часовой пояс: UTC + 3


Вы не можете начинать темы
Вы не можете отвечать на сообщения
Вы не можете редактировать свои сообщения
Вы не можете удалять свои сообщения
Вы не можете голосовать в опросах
Вы не можете прикреплять файлы к сообщениям
Вы не можете скачивать файлы