(New Age / Classical) Emma Shapplin - Etterna - 2002, FLAC (tracks), lossless


 

[Цитировать]

Emma Shapplin - Etterna (2002)
Жанр: New Age / Classical
Год выпуска диска: 2002
Аудио кодек: FLAC
Тип рипа: tracks
Битрейт аудио: lossless
Продолжительность: 00:51:57
Трэклист:
01. Un Sospir'Di Voi
02. Aedeus
03. Da Me Non Venni
04. La Notte Etterna
05. Leonora
06. Celtica
07. La Silente Riva
08. Spesso, Sprofondo
09. Mai Piu Serena
10. Nell' Aria Brunna
11. Finale
12. La Notte Etterna

Log EAC

Exact Audio Copy V0.99 prebeta 5 from 4. May 2009
EAC extraction logfile from 30. July 2009, 1:19
Emma Shapplin / Etterna
Used drive : Optiarc DVD RW AD-7203S Adapter: 1 ID: 0
Read mode : Secure
Utilize accurate stream : Yes
Defeat audio cache : Yes
Make use of C2 pointers : No
Read offset correction : 48
Overread into Lead-In and Lead-Out : No
Fill up missing offset samples with silence : Yes
Delete leading and trailing silent blocks : No
Null samples used in CRC calculations : Yes
Used interface : Installed external ASPI interface
Gap handling : Appended to previous track
Used output format : User Defined Encoder
Selected bitrate : 1024 kBit/s
Quality : High
Add ID3 tag : No
Command line compressor : C:\Program Files (x86)\Exact Audio Copy\Flac\flac.exe
Additional command line options : -V -8 -T "artist=%a" -T "title=%t" -T "album=%g" -T "date=%y" -T "tracknumber=%n" -T "genre=%m" %s
TOC of the extracted CD
Track | Start | Length | Start sector | End sector
---------------------------------------------------------
1 | 0:00.00 | 4:13.00 | 0 | 18974
2 | 4:13.00 | 4:10.60 | 18975 | 37784
3 | 8:23.60 | 4:23.55 | 37785 | 57564
4 | 12:47.40 | 5:47.50 | 57565 | 83639
5 | 18:35.15 | 3:57.18 | 83640 | 101432
6 | 22:32.33 | 5:07.52 | 101433 | 124509
7 | 27:40.10 | 3:52.63 | 124510 | 141972
8 | 31:32.73 | 5:58.40 | 141973 | 168862
9 | 37:31.38 | 4:15.00 | 168863 | 187987
10 | 41:46.38 | 5:15.32 | 187988 | 211644
11 | 47:01.70 | 1:15.14 | 211645 | 217283
12 | 48:17.09 | 3:40.16 | 217284 | 233799
13 | 54:29.25 | 19:27.58 | 245200 | 332782
Track 1
Filename C:\Users\Ondrev\Music\EAC\Emma Shapplin - 2002 - Etterna\01 - Un Sospir'Di Voi.wav
Pre-gap length 0:00:02.00
Peak level 96.5 %
Track quality 99.9 %
Test CRC C744C777
Copy CRC C744C777
Cannot be verified as accurate (confidence 4) [76E15CDA], AccurateRip returned [8875F27E]
Copy OK
Track 2
Filename C:\Users\Ondrev\Music\EAC\Emma Shapplin - 2002 - Etterna\02 - Aedeus.wav
Pre-gap length 0:00:03.42
Peak level 96.5 %
Track quality 100.0 %
Test CRC A1001228
Copy CRC A1001228
Cannot be verified as accurate (confidence 4) [8765B52F], AccurateRip returned [4DA89BBF]
Copy OK
Track 3
Filename C:\Users\Ondrev\Music\EAC\Emma Shapplin - 2002 - Etterna\03 - Da Me Non Venni.wav
Pre-gap length 0:00:03.05
Peak level 96.5 %
Track quality 100.0 %
Test CRC 71EE02F4
Copy CRC 71EE02F4
Cannot be verified as accurate (confidence 4) [F7DDFBA6], AccurateRip returned [BF888931]
Copy OK
Track 4
Filename C:\Users\Ondrev\Music\EAC\Emma Shapplin - 2002 - Etterna\04 - La Notte Etterna.wav
Peak level 96.5 %
Track quality 99.9 %
Test CRC 9B55787E
Copy CRC 9B55787E
Cannot be verified as accurate (confidence 5) [AF1C2ACD], AccurateRip returned [E923F82A]
Copy OK
Track 5
Filename C:\Users\Ondrev\Music\EAC\Emma Shapplin - 2002 - Etterna\05 - Leonora.wav
Pre-gap length 0:00:03.42
Peak level 96.5 %
Track quality 100.0 %
Test CRC 98B1F342
Copy CRC 98B1F342
Cannot be verified as accurate (confidence 4) [8A504C24], AccurateRip returned [87C73672]
Copy OK
Track 6
Filename C:\Users\Ondrev\Music\EAC\Emma Shapplin - 2002 - Etterna\06 - Celtica.wav
Pre-gap length 0:00:01.30
Peak level 96.5 %
Track quality 100.0 %
Test CRC 61DF46D8
Copy CRC 61DF46D8
Cannot be verified as accurate (confidence 4) [0980C9F7], AccurateRip returned [ABAD9CE5]
Copy OK
Track 7
Filename C:\Users\Ondrev\Music\EAC\Emma Shapplin - 2002 - Etterna\07 - La Silente Riva.wav
Pre-gap length 0:00:03.42
Peak level 96.5 %
Track quality 100.0 %
Test CRC 47417356
Copy CRC 47417356
Cannot be verified as accurate (confidence 4) [408DB796], AccurateRip returned [52DCF097]
Copy OK
Track 8
Filename C:\Users\Ondrev\Music\EAC\Emma Shapplin - 2002 - Etterna\08 - Spesso, Sprofondo.wav
Peak level 96.5 %
Track quality 100.0 %
Test CRC CB300BED
Copy CRC CB300BED
Cannot be verified as accurate (confidence 4) [F2298DC1], AccurateRip returned [EC9C1624]
Copy OK
Track 9
Filename C:\Users\Ondrev\Music\EAC\Emma Shapplin - 2002 - Etterna\09 - Mai Piu Serena.wav
Pre-gap length 0:00:03.43
Peak level 96.5 %
Track quality 99.9 %
Test CRC 9CEEABC0
Copy CRC 9CEEABC0
Cannot be verified as accurate (confidence 4) [8BC445C4], AccurateRip returned [F7E1A719]
Copy OK
Track 10
Filename C:\Users\Ondrev\Music\EAC\Emma Shapplin - 2002 - Etterna\10 - Nell' Aria Brunna.wav
Pre-gap length 0:00:03.43
Peak level 96.5 %
Track quality 99.9 %
Test CRC EE751675
Copy CRC EE751675
Cannot be verified as accurate (confidence 4) [F4B06487], AccurateRip returned [AE0ABAD1]
Copy OK
Track 11
Filename C:\Users\Ondrev\Music\EAC\Emma Shapplin - 2002 - Etterna\11 - Finale.wav
Pre-gap length 0:00:13.62
Peak level 96.5 %
Track quality 100.0 %
Test CRC 75D46A97
Copy CRC 75D46A97
Cannot be verified as accurate (confidence 4) [5F860579], AccurateRip returned [529DA8E3]
Copy OK
Track 12
Filename C:\Users\Ondrev\Music\EAC\Emma Shapplin - 2002 - Etterna\12 - La Notte Etterna.wav
Pre-gap length 0:00:01.36
Peak level 99.4 %
Track quality 100.0 %
Test CRC 6A9887F9
Copy CRC 6A9887F9
Cannot be verified as accurate (confidence 4) [8FB39D46], AccurateRip returned [13EB93C8]
Copy OK
No tracks could be verified as accurate
You may have a different pressing from the one(s) in the database
No errors occurred
End of status report

Log Audiochecker

AUDIOCHECKER v2.0 beta (build 457) - by Dester - opdester@freemail.hu
~~~~~~~~~~~~~~~~~~~~~~~~~~~~~~~~~~
-=== НЕ РЕДАКТИРУЙТЕ ЭТОТ ФАЙЛ! ===-
Путь: ...\ Etterna
01 -=- 01 - Un Sospir'Di Voi.flac -=- CDDA (100%)
02 -=- 02 - Aedeus.flac -=- CDDA (100%)
03 -=- 03 - Da Me Non Venni.flac -=- CDDA (100%)
04 -=- 04 - La Notte Etterna.flac -=- CDDA (100%)
05 -=- 05 - Leonora.flac -=- CDDA (100%)
06 -=- 06 - Celtica.flac -=- CDDA (100%)
07 -=- 07 - La Silente Riva.flac -=- CDDA (100%)
08 -=- 08 - Spesso, Sprofondo.flac -=- CDDA (100%)
09 -=- 09 - Mai Piu Serena.flac -=- MPEG (95%)
10 -=- 10 - Nell' Aria Brunna.flac -=- CDDA (100%)
11 -=- 11 - Finale.flac -=- CDDA (100%)
12 -=- 12 - La Notte Etterna.flac -=- CDDA (100%)
Сводка 92,08% CDDA
74773844

Видео

General
Complete name : D:\EmmaShapplin-Etterna2002HQ\data\VIDEO.mov
Format : QuickTime
Format/Info : Original Apple specifications
File size : 71.0 MiB
Duration : 5mn 26s
Overall bit rate : 1 826 Kbps
Encoded date : UTC 2002-04-22 17:51:17
Tagged date : UTC 2002-04-22 17:51:57
Writing library : Apple QuickTime
Video
ID : 1
Format : Sorenson 1
Codec ID : SVQ1
Codec ID/Info : Sorenson Media Video 1 (Apple QuickTime 3)
Duration : 5mn 26s
Bit rate mode : Variable
Bit rate : 1 638 Kbps
Width : 320 pixels
Height : 260 pixels
Display aspect ratio : 5/4
Frame rate mode : Constant
Frame rate : 25.000 fps
Bits/(Pixel*Frame) : 0.788
Stream size : 63.7 MiB (90%)
Encoded date : UTC 2002-04-22 17:03:22
Tagged date : UTC 2002-04-22 17:51:57
Audio
ID : 2
Format : ADPCM
Format settings, Firm : IMA
Codec ID : ima4
Duration : 5mn 26s
Bit rate mode : Constant
Bit rate : 176.4 Kbps
Channel(s) : 2 channels
Sampling rate : 22.05 KHz
Resolution : 16 bits
Stream size : 6.86 MiB (10%)
Encoded date : UTC 2002-04-22 17:03:22
Tagged date : UTC 2002-04-22 17:51:57

Скриншоты

Источник flacmusic.ru



Показать сообщения:    

Текущее время: 10-Дек 00:19

Часовой пояс: UTC + 3


Вы не можете начинать темы
Вы не можете отвечать на сообщения
Вы не можете редактировать свои сообщения
Вы не можете удалять свои сообщения
Вы не можете голосовать в опросах
Вы не можете прикреплять файлы к сообщениям
Вы не можете скачивать файлы