(Opera/Rock/Pop/Concert) Pavarotti And Friends - 1996 - For War Child, FLAC (tracks+.cue), lossless


 

[Цитировать]

Pavarotti And Friends - For War Child
Жанр: Opera/Rock/Pop/Concert
Год выпуска диска: 1996
Производитель диска: Россия
Аудио-кодек: FLAC
Тип рипа: tracks+.cue
Битрейт: lossless
Продолжительность: 01:15:52
Трэклист:
01 - Luciano Pavarotti & Eric Clapton - Holy Mother
02 - Joan Osborne - Saint Teresa
03 - Elton John - I Guess That's Why They Call It The Blues
04 - Liza Minelli & Luciano Pavarotti - New York, New York
05 - Zucchero - My Love
06 - Sheryl Crow & Eric Clapton - Run, Baby, Run
07 - Luciano Pavarotti & Ligabue - Certe Notti
08 - Jon Secada - Angel
09 - Luciano Pavarotti & The Kelly Family - Ave Maria
10 - Litfiba - Spirito
11 - Eric Clapton - Third Degree
12 - Luciano Pavarotti & Sheryl Crow - La Ci Darem La Mano-Mozart-Don Giovanni
13 - Edoardo Bennato - Le Ragazze Fanno Grandi Sogni
14 - Luciano Pavarotti & Jon Secada - Granada
15 - Paco De Lucia & Al Di Meola & John McLaughlin - Mediterranean Sundance
16 - Luciano Pavarotti & Joan Osborne - Gesu Bambino
17 - Luciano Pavarotti & Elton John - Live Like Horses
-
Live from the Parco Novi Sad, Modena, 20 June 1996
Thanks to L'Orchestra Filarmonica di Torino
Conductors Marco Armiliato, Jose Molina and Bill Lavorgna
East London Gospel Choir
Choir director: Leroy Thompson Music director: Joseph Roberts

log

Exact Audio Copy V0.99 prebeta 4 from 23. January 2008
Отчёт EAC об извлечении, выполненном 19. февраля 2009, 1:19
Various / For War Child
Дисковод: _NEC DVD_RW ND-3520A Adapter: 0 ID: 0
Режим чтения : Достоверность
Использование точного потока : Да
Отключение кэша аудио : Да
Использование указателей C2 : Нет
Коррекция смещения при чтении : 48
Способность читать области Lead-in и Lead-out : Нет
Заполнение пропущенных сэмплов тишиной : Да
Удаление блоков с тишиной в начале и конце : Нет
При вычислениях CRC использовались нулевые сэмплы : Да
Интерфейс : Установленный внешний ASPI-интерфейс
Обработка зазоров : Добавлено к предыдущему треку
Выходной формат : Внутренние WAV-операции
Формат сэмплов : 44.100 Гц; 16 бит; стерео
Смещение при сжатии : 0
TOC извлечённого CD
Трек | Старт | Длительность | Начальный сектор | Конечный сектор
---------------------------------------------------------------------
1 | 0:00.00 | 5:39.12 | 0 | 25436
2 | 5:39.12 | 5:41.43 | 25437 | 51054
3 | 11:20.55 | 4:39.67 | 51055 | 72046
4 | 16:00.47 | 3:54.00 | 72047 | 89596
5 | 19:54.47 | 5:37.63 | 89597 | 114934
6 | 25:32.35 | 6:10.02 | 114935 | 142686
7 | 31:42.37 | 4:18.25 | 142687 | 162061
8 | 36:00.62 | 4:53.40 | 162062 | 184076
9 | 40:54.27 | 2:24.63 | 184077 | 194939
10 | 43:19.15 | 4:48.42 | 194940 | 216581
11 | 48:07.57 | 4:49.53 | 216582 | 238309
12 | 52:57.35 | 3:13.12 | 238310 | 252796
13 | 56:10.47 | 3:17.03 | 252797 | 267574
14 | 59:27.50 | 3:18.50 | 267575 | 282474
15 | 62:46.25 | 4:14.67 | 282475 | 301591
16 | 67:01.17 | 3:51.23 | 301592 | 318939
17 | 70:52.40 | 4:59.32 | 318940 | 341396
Трек 1
Имя файла D:\#-Music\##-EAC\Luciano Pavarotti And Friends\1996 - For War Child\01 - Luciano Pavarotti & Eric Clapton - Holy Mother.wav
Длина предзазора 0:00:02.00
Пиковый уровень 99.8 %
Качество трека 100.0 %
CRC теста 657B1BE8
CRC копии 657B1BE8
Точность не определена (достоверность 2) [62F86616], AccurateRip вернул [6818125F]
Копирование... OK
Трек 2
Имя файла D:\#-Music\##-EAC\Luciano Pavarotti And Friends\1996 - For War Child\02 - Joan Osborne - Saint Teresa.wav
Пиковый уровень 99.8 %
Качество трека 100.0 %
CRC теста 70D3736F
CRC копии 70D3736F
Точность не определена (достоверность 2) [181AD5F9], AccurateRip вернул [8C6102D4]
Копирование... OK
Трек 3
Имя файла D:\#-Music\##-EAC\Luciano Pavarotti And Friends\1996 - For War Child\03 - Elton John - I Guess That's Why They Call It The Blues.wav
Пиковый уровень 99.8 %
Качество трека 99.9 %
CRC теста FC52984E
CRC копии FC52984E
Точность не определена (достоверность 2) [6143F0BA], AccurateRip вернул [90AE489A]
Копирование... OK
Трек 4
Имя файла D:\#-Music\##-EAC\Luciano Pavarotti And Friends\1996 - For War Child\04 - Liza Minelli & Luciano Pavarotti - New York, New York.wav
Пиковый уровень 99.8 %
Качество трека 100.0 %
CRC теста 4C1C1D78
CRC копии 4C1C1D78
Точность не определена (достоверность 2) [BD48FE3C], AccurateRip вернул [D251F76C]
Копирование... OK
Трек 5
Имя файла D:\#-Music\##-EAC\Luciano Pavarotti And Friends\1996 - For War Child\05 - Zucchero - My Love.wav
Пиковый уровень 99.8 %
Качество трека 100.0 %
CRC теста 03F34863
CRC копии 03F34863
Точность не определена (достоверность 2) [18293802], AccurateRip вернул [6B067D8D]
Копирование... OK
Трек 6
Имя файла D:\#-Music\##-EAC\Luciano Pavarotti And Friends\1996 - For War Child\06 - Sheryl Crow & Eric Clapton - Run, Baby, Run.wav
Пиковый уровень 99.8 %
Качество трека 99.9 %
CRC теста 2177B2CF
CRC копии 2177B2CF
Точность не определена (достоверность 2) [C4770915], AccurateRip вернул [6C168AC3]
Копирование... OK
Трек 7
Имя файла D:\#-Music\##-EAC\Luciano Pavarotti And Friends\1996 - For War Child\07 - Luciano Pavarotti & Ligabue - Certe Notti.wav
Пиковый уровень 99.8 %
Качество трека 99.9 %
CRC теста A7289A19
CRC копии A7289A19
Точность не определена (достоверность 2) [CA3CC3B0], AccurateRip вернул [96CFC747]
Копирование... OK
Трек 8
Имя файла D:\#-Music\##-EAC\Luciano Pavarotti And Friends\1996 - For War Child\08 - Jon Seceda - Angel.wav
Пиковый уровень 99.8 %
Качество трека 99.9 %
CRC теста 37EB6EBB
CRC копии 37EB6EBB
Точность не определена (достоверность 2) [F5B7A3BE], AccurateRip вернул [BA5AB54A]
Копирование... OK
Трек 9
Имя файла D:\#-Music\##-EAC\Luciano Pavarotti And Friends\1996 - For War Child\09 - Luciano Pavarotti & The Kelly Family - Ave Maria.wav
Пиковый уровень 99.8 %
Качество трека 100.0 %
CRC теста 1F258F85
CRC копии 1F258F85
Точность не определена (достоверность 2) [393581BA], AccurateRip вернул [E402EFC1]
Копирование... OK
Трек 10
Имя файла D:\#-Music\##-EAC\Luciano Pavarotti And Friends\1996 - For War Child\10 - Litfiba - Spirito.wav
Пиковый уровень 99.8 %
Качество трека 99.9 %
CRC теста E69CDED1
CRC копии E69CDED1
Точность не определена (достоверность 2) [C8643CE9], AccurateRip вернул [769819D1]
Копирование... OK
Трек 11
Имя файла D:\#-Music\##-EAC\Luciano Pavarotti And Friends\1996 - For War Child\11 - Eric Clapton - Third Degree.wav
Пиковый уровень 99.8 %
Качество трека 100.0 %
CRC теста 99A39B3F
CRC копии 99A39B3F
Точность не определена (достоверность 2) [D0204A26], AccurateRip вернул [902555C4]
Копирование... OK
Трек 12
Имя файла D:\#-Music\##-EAC\Luciano Pavarotti And Friends\1996 - For War Child\12 - Luciano Pavarotti & Sheryl Crow - La Ci Darem La Mano-Mozart-Don Giovanni.wav
Пиковый уровень 99.8 %
Качество трека 100.0 %
CRC теста 859C0E38
CRC копии 859C0E38
Точность не определена (достоверность 2) [6967C548], AccurateRip вернул [DE64DA6D]
Копирование... OK
Трек 13
Имя файла D:\#-Music\##-EAC\Luciano Pavarotti And Friends\1996 - For War Child\13 - Edoardo Bennato - Le Ragazze Fanno Grandi Sogni.wav
Пиковый уровень 99.8 %
Качество трека 100.0 %
CRC теста 2162DE22
CRC копии 2162DE22
Точность не определена (достоверность 2) [ED73A4B6], AccurateRip вернул [92FC46D3]
Копирование... OK
Трек 14
Имя файла D:\#-Music\##-EAC\Luciano Pavarotti And Friends\1996 - For War Child\14 - Luciano Pavarotti & Jon Secada - Granada.wav
Пиковый уровень 99.8 %
Качество трека 100.0 %
CRC теста 73FC82BB
CRC копии 73FC82BB
Точность не определена (достоверность 2) [015B3928], AccurateRip вернул [8DBBCCEE]
Копирование... OK
Трек 15
Имя файла D:\#-Music\##-EAC\Luciano Pavarotti And Friends\1996 - For War Child\15 - Paco De Lucia & Al Di Meola & John McLaughlin - Mediterranean Sundance.wav
Пиковый уровень 99.8 %
Качество трека 99.9 %
CRC теста 9815D7FB
CRC копии 9815D7FB
Точность не определена (достоверность 2) [119221E2], AccurateRip вернул [7B77A509]
Копирование... OK
Трек 16
Имя файла D:\#-Music\##-EAC\Luciano Pavarotti And Friends\1996 - For War Child\16 - Luciano Pavarotti & Joan Osborne - Gesu Bambino.wav
Пиковый уровень 99.8 %
Качество трека 100.0 %
CRC теста 14A19A7E
CRC копии 14A19A7E
Точность не определена (достоверность 2) [33E8C5FE], AccurateRip вернул [1D0AACDC]
Копирование... OK
Трек 17
Имя файла D:\#-Music\##-EAC\Luciano Pavarotti And Friends\1996 - For War Child\17 - Luciano Pavarotti & Elton John - Live Like Horses.wav
Пиковый уровень 99.8 %
Качество трека 99.8 %
CRC теста 0F546B67
CRC копии 0F546B67
Точность не определена (достоверность 7) [826F2939], AccurateRip вернул [7069B41F]
Копирование... OK
Ни один трек не прошёл проверки на точность
В вашей базе может быть иной вариант штамповки диска
Ошибок не произошло
Конец отчёта
Доп. информация:
Рип мой, диск мой, сканы в коплекте
грабил EAC
флачил Easy CD-DA Extractor
CUE сосуществуют как имиджевый, так и трэковый [оба от EAC]
сканировал Photoshop
Чем можно послушать музыку в форматах APE, FLAC, WV?
Всё о CUE



Показать сообщения:    

Текущее время: 10-Дек 10:01

Часовой пояс: UTC + 3


Вы не можете начинать темы
Вы не можете отвечать на сообщения
Вы не можете редактировать свои сообщения
Вы не можете удалять свои сообщения
Вы не можете голосовать в опросах
Вы не можете прикреплять файлы к сообщениям
Вы не можете скачивать файлы