(Классика в современной обработке) Marek & Vacek-Again - 1974, FLAC (image+.cue) lossles


 

[Цитировать]

Marek & Vacek-Again

Жанр: Классика в современной обработке
Год выпуска диска: 1974
Аудио кодек: FLAC
Тип рипа: image+.cue
Битрейт аудио: lossless
Продолжительность: 00:36:10
Трэклист:
01. Kaprys A-moll (N.Paganini) [0:02:47.00]
02. Tarantella (G.Rossini) [0:02:44.00]
03. Preludium As-dur (F.Chopin) [0:03:20.00]
04. Przasniczka (S.Moniuszko) [0:02:59.00]
05. Ragtime Klonowego Liscia (S.Joplin) [0:02:36.00]
06. II Rapsodia Wegierska (F.Liszt) [0:03:00.00]
07. Chcialabym a Boje Sie (M.Ager) [0:02:38.00]
08. Slonce Umarlo (H.Giraud) [0:03:33.00]
09. Allegretto (L.V.Beethoven) [0:03:13.00]
10. Slowik (A.Alabiew) [0:03:16.00]
11. Laura i Filion (Mel.Lud.) [0:02:35.00]
12. Kolysanka z Filmu Rosemary's Baby (K.Komeda) [0:03:29.00]

log

Exact Audio Copy V0.99 prebeta 3 from 28. July 2007
Отчёт EAC об извлечении, выполненном 15. сентября 2009, 20:01
Marek & Vacek / Again
Дисковод: ASUS DRW-1814BL Adapter: 0 ID: 0
Режим чтения : Достоверность
Использование точного потока : Да
Отключение кэша аудио : Да
Использование указателей C2 : Нет
Коррекция смещения при чтении : 6
Способность читать области Lead-in и Lead-out : Нет
Заполнение пропущенных сэмплов тишиной : Да
Удаление блоков с тишиной в начале и конце : Нет
При вычислениях CRC использовались нулевые сэмплы : Да
Интерфейс : Установленный внешний ASPI-интерфейс
Выходной формат : Пользовательский кодировщик
Выбранный битрейт : 1024 kBit/s
Качество : Высокий
Добавление ID3-тэга : Нет
Утилита сжатия : C:\Program Files\Exact Audio Copy\FLAC\FLAC.EXE
Дополнительные параметры : -6 -V -T "ARTIST=%a" -T "TITLE=%t" -T "ALBUM=%g" -T "DATE=%y" -T "TRACKNUMBER=%n" -T "GENRE=%m" -T "COMMENT=%e" %s -o %d
TOC извлечённого CD
Трек | Старт | Длительность | Начальный сектор | Конечный сектор
---------------------------------------------------------------------
1 | 0:00.00 | 2:45.00 | 0 | 12374
2 | 2:45.00 | 2:44.00 | 12375 | 24674
3 | 5:29.00 | 3:20.00 | 24675 | 39674
4 | 8:49.00 | 2:59.00 | 39675 | 53099
5 | 11:48.00 | 2:36.00 | 53100 | 64799
6 | 14:24.00 | 3:00.00 | 64800 | 78299
7 | 17:24.00 | 2:38.00 | 78300 | 90149
8 | 20:02.00 | 3:33.00 | 90150 | 106124
9 | 23:35.00 | 3:13.00 | 106125 | 120599
10 | 26:48.00 | 3:16.00 | 120600 | 135299
11 | 30:04.00 | 2:35.00 | 135300 | 146924
12 | 32:39.00 | 3:31.00 | 146925 | 162749
Характеристики диапазона извлечения и сообщения об ошибках
Выбранный диапазон
Имя файла E:\Torrents.ru\Marek & Vacek-Again (1974)\Marek & Vacek - Again.wav
Пиковый уровень 100.0 %
Качество диапазона 100.0 %
CRC копии C1885995
Копирование... OK
Ошибок не произошло
Конец отчёта

audiochecker.log

AUDIOCHECKER v2.0 beta (build 457) - by Dester - opdester@freemail.hu
~~~~~~~~~~~~~~~~~~~~~~~~~~~~~~~~~~
-=== DO NOT EDIT THIS FILE! ===-
Path: ...\Marek & Vacek-Again (1974)
1 -=- Marek & Vacek - Again.flac -=- CDDA (100%)
37165796



Показать сообщения:    

Текущее время: 09-Дек 12:46

Часовой пояс: UTC + 3


Вы не можете начинать темы
Вы не можете отвечать на сообщения
Вы не можете редактировать свои сообщения
Вы не можете удалять свои сообщения
Вы не можете голосовать в опросах
Вы не можете прикреплять файлы к сообщениям
Вы не можете скачивать файлы