(Symphonic Rock) London Synphonic Orchestra - Plays Michael Jackson - 1995, FLAC (tracks+.cue), lossless


 

[Цитировать]

London Synphonic Orchestra - Plays Michael Jackson -Жанр: Classical
Год выпуска диска: 1995
Производитель диска: UK
Аудио кодек: FLAC
Тип рипа: tracks+.cue
Битрейт аудио: lossless
Продолжительность: 00:44:01
-Трэклист:
1. Billie Jean 4:42
2. The Girl is Mine 2:59
3. Thriller 4:09
4. I Just Can't Stop Loving You 4:03
5. The Way You Make Me Feel 3:31
6. She's Out of My Life 3:16
7. Beat It 3:24
8. Ben 2:44
9. Leave Me Alone 4:17
10. One Day In Your Life 3:38
11. Man In The Mirror 4:28
12. Bad 2:45
-

Отчёт EAC

Exact Audio Copy V0.99 prebeta 4 from 23. January 2008
EAC extraction logfile from 7. May 2009, 11:39
London Synphonic Orchestra / Plays Michael Jackson
Used drive : Optiarc DVD RW AD-7561S Adapter: 2 ID: 0
Read mode : Secure
Utilize accurate stream : Yes
Defeat audio cache : Yes
Make use of C2 pointers : No
Read offset correction : 6
Overread into Lead-In and Lead-Out : No
Fill up missing offset samples with silence : Yes
Delete leading and trailing silent blocks : No
Null samples used in CRC calculations : Yes
Used interface : Native Win32 interface for Win NT & 2000
Gap handling : Appended to previous track
Used output format : User Defined Encoder
Selected bitrate : 768 kBit/s
Quality : High
Add ID3 tag : No
Command line compressor : C:\Program Files (x86)\Exact Audio Copy\FLAC\FLAC.EXE
Additional command line options : -V -8 -T "artist=%a" -T "title=%t" -T "album=%g" -T "date=%y" -T "tracknumber=%n" -T "genre=%m" %s
TOC of the extracted CD
Track | Start | Length | Start sector | End sector
---------------------------------------------------------
1 | 0:00.00 | 4:42.37 | 0 | 21186
2 | 4:42.37 | 2:59.63 | 21187 | 34674
3 | 7:42.25 | 4:09.17 | 34675 | 53366
4 | 11:51.42 | 4:03.23 | 53367 | 71614
5 | 15:54.65 | 3:31.45 | 71615 | 87484
6 | 19:26.35 | 3:16.17 | 87485 | 102201
7 | 22:42.52 | 3:24.58 | 102202 | 117559
8 | 26:07.35 | 2:44.37 | 117560 | 129896
9 | 28:51.72 | 4:17.18 | 129897 | 149189
10 | 33:09.15 | 3:38.32 | 149190 | 165571
11 | 36:47.47 | 4:28.48 | 165572 | 185719
12 | 41:16.20 | 2:45.47 | 185720 | 198141
Track 1
Filename D:\Un Music\London Synphonic Orchestra\Plays Michael Jackson\01 Billie Jean.wav
Pre-gap length 0:00:02.00
Peak level 83.2 %
Track quality 100.0 %
Test CRC 1E4380C6
Copy CRC 1E4380C6
Track not present in AccurateRip database
Copy OK
Track 2
Filename D:\Un Music\London Synphonic Orchestra\Plays Michael Jackson\02 The girl is mine.wav
Peak level 78.7 %
Track quality 100.0 %
Test CRC E5D545F2
Copy CRC E5D545F2
Track not present in AccurateRip database
Copy OK
Track 3
Filename D:\Un Music\London Synphonic Orchestra\Plays Michael Jackson\03 Thriller.wav
Peak level 97.1 %
Track quality 100.0 %
Test CRC 23A6C45E
Copy CRC 23A6C45E
Track not present in AccurateRip database
Copy OK
Track 4
Filename D:\Un Music\London Synphonic Orchestra\Plays Michael Jackson\04 I just can't stop loving you.wav
Peak level 72.3 %
Track quality 100.0 %
Test CRC B6891A5B
Copy CRC B6891A5B
Track not present in AccurateRip database
Copy OK
Track 5
Filename D:\Un Music\London Synphonic Orchestra\Plays Michael Jackson\05 The way you make me feel.wav
Peak level 98.0 %
Track quality 100.0 %
Test CRC 7F72ED20
Copy CRC 7F72ED20
Track not present in AccurateRip database
Copy OK
Track 6
Filename D:\Un Music\London Synphonic Orchestra\Plays Michael Jackson\06 She's out of my life.wav
Peak level 98.0 %
Track quality 99.9 %
Test CRC 5F7A8873
Copy CRC 5F7A8873
Track not present in AccurateRip database
Copy OK
Track 7
Filename D:\Un Music\London Synphonic Orchestra\Plays Michael Jackson\07 Beat it.wav
Peak level 79.7 %
Track quality 100.0 %
Test CRC 6262BE1A
Copy CRC 6262BE1A
Track not present in AccurateRip database
Copy OK
Track 8
Filename D:\Un Music\London Synphonic Orchestra\Plays Michael Jackson\08 Ben.wav
Peak level 43.8 %
Track quality 100.0 %
Test CRC 4196CF54
Copy CRC 4196CF54
Track not present in AccurateRip database
Copy OK
Track 9
Filename D:\Un Music\London Synphonic Orchestra\Plays Michael Jackson\09 Leave me alone.wav
Peak level 91.4 %
Track quality 100.0 %
Test CRC C5098989
Copy CRC C5098989
Track not present in AccurateRip database
Copy OK
Track 10
Filename D:\Un Music\London Synphonic Orchestra\Plays Michael Jackson\10 One day in your life.wav
Peak level 98.0 %
Track quality 100.0 %
Test CRC AC7174E4
Copy CRC AC7174E4
Track not present in AccurateRip database
Copy OK
Track 11
Filename D:\Un Music\London Synphonic Orchestra\Plays Michael Jackson\11 Man in the mirror.wav
Peak level 85.5 %
Track quality 99.9 %
Test CRC 3D26BB8E
Copy CRC 3D26BB8E
Track not present in AccurateRip database
Copy OK
Track 12
Filename D:\Un Music\London Synphonic Orchestra\Plays Michael Jackson\12 Bad.wav
Peak level 98.0 %
Track quality 100.0 %
Test CRC 97B57512
Copy CRC 97B57512
Track not present in AccurateRip database
Copy OK
None of the tracks are present in the AccurateRip database
No errors occurred
End of status report
-



Показать сообщения:    

Текущее время: 19-Янв 16:05

Часовой пояс: UTC + 3


Вы не можете начинать темы
Вы не можете отвечать на сообщения
Вы не можете редактировать свои сообщения
Вы не можете удалять свои сообщения
Вы не можете голосовать в опросах
Вы не можете прикреплять файлы к сообщениям
Вы не можете скачивать файлы