(Electronic, Классика в современной обработке) Stefan Obermaier - I Mozart lounge - 2005, FLAC (image+.cue), lossless


 

[Цитировать]

Stefan Obermaier - I Mozart lounge
Жанр: Electronic, Классика в современной обработке
Год выпуска диска: 2005
Производитель диска: Austria
Аудио кодек: FLAC
Тип рипа: image+.cue
Битрейт аудио: lossless
Продолжительность: 50:49
Трэклист:
1. Symphony No.38 in D, K.504 "Prague" 1. Adagio - Allegro 4:25
2. "Rondo Alla Turca" Piano Sonata No.11 in A, K.331 - 3. Alla Turca (Allegretto) 4:26
3. "Still Alive" Piano Concerto No.23 in A, K.488 2. Andante 4:18
4. Symphony No.40 in G minor, K.550 1. Molto allegro 4:21
5. "A little night music", Serenade in G, K.525 "Eine kleine Nachtmusik" 4. Rondo (Allegro) 3:55
6. "A little night music" Serenade in G, K.525 "Eine kleine Nachtmusik" 1. Allegro 5:07
7. Le nozze di Figaro, K.492 Overture 4:15
8. Piano Concerto No.21 in C, K.467 2. Andante 3:36
9. "Requiem aeterna" Requiem in D minor, K.626 Requiem (Introitus) 3:27
10. "Queen of the Night" Die Zauberflote, K.620 "O zittre nicht" 3:57
11. "Fin ch'han dal vino" Don Giovanni, ossia Il dissoluto punito, K.527 3:28
12. "Melancholy", Clarinet Concerto in A, K.622 2. Adagio 5:12

Диск куплен в Вене в музее музыки (Haus der Musik).
Отличная обработка легендарной музыки. Всем советую.
Сканы обложек в комплекте

EAC

Exact Audio Copy V0.99 prebeta 5 from 4. May 2009
EAC extraction logfile from 31. August 2009, 10:35
Stefan Obermaier / iMozart
Used drive : PIONEER BD-ROM BDC-202 Adapter: 0 ID: 1
Read mode : Secure
Utilize accurate stream : Yes
Defeat audio cache : Yes
Make use of C2 pointers : No
Read offset correction : 667
Overread into Lead-In and Lead-Out : No
Fill up missing offset samples with silence : Yes
Delete leading and trailing silent blocks : No
Null samples used in CRC calculations : Yes
Used interface : Installed external ASPI interface
Used output format : User Defined Encoder
Selected bitrate : 128 kBit/s
Quality : High
Add ID3 tag : No
Command line compressor : C:\Program Files\Exact Audio Copy\Flac\flac.exe
Additional command line options : -8 -V %s
TOC of the extracted CD
Track | Start | Length | Start sector | End sector
---------------------------------------------------------
1 | 0:00.00 | 4:27.04 | 0 | 20028
2 | 4:27.04 | 4:28.21 | 20029 | 40149
3 | 8:55.25 | 4:20.66 | 40150 | 59715
4 | 13:16.16 | 4:23.57 | 59716 | 79497
5 | 17:39.73 | 3:57.03 | 79498 | 97275
6 | 21:37.01 | 5:08.74 | 97276 | 120449
7 | 26:46.00 | 4:17.49 | 120450 | 139773
8 | 31:03.49 | 3:38.35 | 139774 | 156158
9 | 34:42.09 | 3:29.08 | 156159 | 171841
10 | 38:11.17 | 3:59.08 | 171842 | 189774
11 | 42:10.25 | 3:30.63 | 189775 | 205587
12 | 45:41.13 | 5:12.15 | 205588 | 229002
Range status and errors
Selected range
Filename F:\MP3\Stefan Obermaier\Stefan Obermaier - Mozart Lounge\loss\Stefan Obermaier - iMozart.wav
Copy aborted
End of status report
------------------------------------------------------------
Exact Audio Copy V0.99 prebeta 5 from 4. May 2009
EAC extraction logfile from 31. August 2009, 10:36
Stefan Obermaier / iMozart
Used drive : PIONEER BD-ROM BDC-202 Adapter: 0 ID: 1
Read mode : Secure
Utilize accurate stream : Yes
Defeat audio cache : Yes
Make use of C2 pointers : No
Read offset correction : 667
Overread into Lead-In and Lead-Out : No
Fill up missing offset samples with silence : Yes
Delete leading and trailing silent blocks : No
Null samples used in CRC calculations : Yes
Used interface : Installed external ASPI interface
Used output format : User Defined Encoder
Selected bitrate : 128 kBit/s
Quality : High
Add ID3 tag : No
Command line compressor : C:\Program Files\Exact Audio Copy\Flac\flac.exe
Additional command line options : -8 -V %s
TOC of the extracted CD
Track | Start | Length | Start sector | End sector
---------------------------------------------------------
1 | 0:00.00 | 4:27.04 | 0 | 20028
2 | 4:27.04 | 4:28.21 | 20029 | 40149
3 | 8:55.25 | 4:20.66 | 40150 | 59715
4 | 13:16.16 | 4:23.57 | 59716 | 79497
5 | 17:39.73 | 3:57.03 | 79498 | 97275
6 | 21:37.01 | 5:08.74 | 97276 | 120449
7 | 26:46.00 | 4:17.49 | 120450 | 139773
8 | 31:03.49 | 3:38.35 | 139774 | 156158
9 | 34:42.09 | 3:29.08 | 156159 | 171841
10 | 38:11.17 | 3:59.08 | 171842 | 189774
11 | 42:10.25 | 3:30.63 | 189775 | 205587
12 | 45:41.13 | 5:12.15 | 205588 | 229002
Range status and errors
Selected range
Filename F:\MP3\Stefan Obermaier\Stefan Obermaier - Mozart Lounge\loss\Stefan Obermaier - iMozart.wav
Copy aborted
End of status report
------------------------------------------------------------
Exact Audio Copy V0.99 prebeta 5 from 4. May 2009
EAC extraction logfile from 31. August 2009, 10:54
Stefan Obermaier / iMozart
Used drive : PIONEER BD-ROM BDC-202 Adapter: 0 ID: 1
Read mode : Secure
Utilize accurate stream : Yes
Defeat audio cache : Yes
Make use of C2 pointers : No
Read offset correction : 667
Overread into Lead-In and Lead-Out : No
Fill up missing offset samples with silence : Yes
Delete leading and trailing silent blocks : No
Null samples used in CRC calculations : Yes
Used interface : Installed external ASPI interface
Used output format : User Defined Encoder
Selected bitrate : 128 kBit/s
Quality : High
Add ID3 tag : No
Command line compressor : C:\Program Files\Exact Audio Copy\Flac\flac.exe
Additional command line options : -8 -V %s
TOC of the extracted CD
Track | Start | Length | Start sector | End sector
---------------------------------------------------------
1 | 0:00.00 | 4:27.04 | 0 | 20028
2 | 4:27.04 | 4:28.21 | 20029 | 40149
3 | 8:55.25 | 4:20.66 | 40150 | 59715
4 | 13:16.16 | 4:23.57 | 59716 | 79497
5 | 17:39.73 | 3:57.03 | 79498 | 97275
6 | 21:37.01 | 5:08.74 | 97276 | 120449
7 | 26:46.00 | 4:17.49 | 120450 | 139773
8 | 31:03.49 | 3:38.35 | 139774 | 156158
9 | 34:42.09 | 3:29.08 | 156159 | 171841
10 | 38:11.17 | 3:59.08 | 171842 | 189774
11 | 42:10.25 | 3:30.63 | 189775 | 205587
12 | 45:41.13 | 5:12.15 | 205588 | 229002
Range status and errors
Selected range
Filename F:\MP3\Stefan Obermaier\Stefan Obermaier - Mozart Lounge\loss\Stefan Obermaier - iMozart.wav
Peak level 99.6 %
Range quality 99.9 %
Test CRC 5A05F3F5
Copy CRC 5A05F3F5
Copy OK
No errors occurred
End of status report

Audiochecker

AUDIOCHECKER v2.0 beta (build 457) - by Dester - opdester@freemail.hu
~~~~~~~~~~~~~~~~~~~~~~~~~~~~~~~~~~
Started at: понедельник, 31. 08. 2009. - 11:06.21
12 files found
01 -===- F:\MP3\Stefan Obermaier\Stefan Obermaier - Mozart Lounge\loss\Новая папка\(01) [Stefan Obermaier] Symphony No.38 in D, 'Prague'.flac
Extracted successfully
Conclusion: this track is CDDA with probability 100%
Tempfile successfully deleted.
02 -===- F:\MP3\Stefan Obermaier\Stefan Obermaier - Mozart Lounge\loss\Новая папка\(02) [Stefan Obermaier] 'Rondo Alla Turca'.flac
Extracted successfully
Conclusion: this track is CDDA with probability 100%
Tempfile successfully deleted.
03 -===- F:\MP3\Stefan Obermaier\Stefan Obermaier - Mozart Lounge\loss\Новая папка\(03) [Stefan Obermaier] 'Still Alive' Piano Concerto No.23 in A.flac
Extracted successfully
Conclusion: this track is CDDA with probability 100%
Tempfile successfully deleted.
04 -===- F:\MP3\Stefan Obermaier\Stefan Obermaier - Mozart Lounge\loss\Новая папка\(04) [Stefan Obermaier] Symphony No.40 in G minor.flac
Extracted successfully
Conclusion: this track is CDDA with probability 100%
Tempfile successfully deleted.
05 -===- F:\MP3\Stefan Obermaier\Stefan Obermaier - Mozart Lounge\loss\Новая папка\(05) [Stefan Obermaier] 'A little night music' Rondo (Allegro).flac
Extracted successfully
Conclusion: this track is CDDA with probability 100%
Tempfile successfully deleted.
06 -===- F:\MP3\Stefan Obermaier\Stefan Obermaier - Mozart Lounge\loss\Новая папка\(06) [Stefan Obermaier] 'A little night music' Allegro.flac
Extracted successfully
Conclusion: this track is CDDA with probability 100%
Tempfile successfully deleted.
07 -===- F:\MP3\Stefan Obermaier\Stefan Obermaier - Mozart Lounge\loss\Новая папка\(07) [Stefan Obermaier] Le nozze di Figaro.flac
Extracted successfully
Conclusion: this track is CDDA with probability 100%
Tempfile successfully deleted.
08 -===- F:\MP3\Stefan Obermaier\Stefan Obermaier - Mozart Lounge\loss\Новая папка\(08) [Stefan Obermaier] Piano Concerto No.21 in C.flac
Extracted successfully
Conclusion: this track is CDDA with probability 100%
Tempfile successfully deleted.
09 -===- F:\MP3\Stefan Obermaier\Stefan Obermaier - Mozart Lounge\loss\Новая папка\(09) [Stefan Obermaier] 'Requiem aeterna' Requiem in D minor.flac
Extracted successfully
Conclusion: this track is CDDA with probability 100%
Tempfile successfully deleted.
10 -===- F:\MP3\Stefan Obermaier\Stefan Obermaier - Mozart Lounge\loss\Новая папка\(10) [Stefan Obermaier] 'Queen of the Night' Die Zauberflљte.flac
Extracted successfully
Conclusion: this track is CDDA with probability 99%
Tempfile successfully deleted.
11 -===- F:\MP3\Stefan Obermaier\Stefan Obermaier - Mozart Lounge\loss\Новая папка\(11) [Stefan Obermaier] 'Fin ch'han dal vino' Don Giovanni.flac
Extracted successfully
Conclusion: this track is CDDA with probability 100%
Tempfile successfully deleted.
12 -===- F:\MP3\Stefan Obermaier\Stefan Obermaier - Mozart Lounge\loss\Новая папка\(12) [Stefan Obermaier] 'Melancholy', Clarinet Concerto in A.flac
Extracted successfully
Conclusion: this track is CDDA with probability 99%
Tempfile successfully deleted.
Finished at: понедельник, 31. 08. 2009. - 11:10.14 (operation time: 0:03.52)



Показать сообщения:    

Текущее время: 10-Дек 02:16

Часовой пояс: UTC + 3


Вы не можете начинать темы
Вы не можете отвечать на сообщения
Вы не можете редактировать свои сообщения
Вы не можете удалять свои сообщения
Вы не можете голосовать в опросах
Вы не можете прикреплять файлы к сообщениям
Вы не можете скачивать файлы