(Rock Pop, Folk, Country) London Philharmonic Orchestra - Plays the music of Neil Diamond - 1999, FLAC (image+.cue), lossless


 

[Цитировать]

London Philharmonic Orchestra - Plays the music of Neil Diamond
Жанр: Rock Pop, Folk, Country
Год выпуска диска: 1999
Производитель диска: UK
Аудио кодек: FLAC
Тип рипа: image+.cue
Битрейт аудио: lossless
Продолжительность: 39:39
Лейбл: Music Digital CD 6169
Трэклист:
01. I am I said [0:03:22.43]
02. Diamond Symphonies Overture [0:05:58.54]
03. Cracklin' Rosie Medley [0:03:45.18]
04. Play Me [0:03:05.12]
05. Forever In Blue Jeans [0:03:20.06]
06. Sweet Caroline [0:03:30.03]
07. September Morn [0:03:22.36]
08. Beautiful Noise [0:03:19.62]
09. You Don't Bring Me Flowers [0:03:30.31]
10. Song Song Blue Medley [0:06:25.15]
Доп. информация:
Красиво обработанная музыка от Neil Diamond в исполнении Лондонского Филармонического Оркестра.
Об оркестре в русской версии Wikipedia. Не путайте, кстати, этот оркестр с Royal Philharmonic Orchestra (Wikipedia).

Отчет ЕАС (AccurateRip: Not in database)

Exact Audio Copy V0.99 prebeta 4 from 23. January 2008
EAC extraction logfile from 27. August 2009, 23:40
London Philharmonic Orchestra / Plays the music of Neil Diamond
Used drive : HL-DT-STDVDRAM_GSA-T20N Adapter: 0 ID: 0
Read mode : SecureUtilize accurate stream : YesDefeat audio cache : YesMake use of C2 pointers : No
Read offset correction : 667Overread into Lead-In and Lead-Out : NoFill up missing offset samples with silence : YesDelete leading and trailing silent blocks : NoNull samples used in CRC calculations : YesUsed interface : Native Win32 interface for Win NT & 2000
Used output format : User Defined EncoderSelected bitrate : 768 kBit/sQuality : HighAdd ID3 tag : NoCommand line compressor : C:\Program Files\Exact Audio Copy\Flac\flac.exeAdditional command line options : -6 -V -T "ARTIST=%a" -T "TITLE=%t" -T "ALBUM=%g" -T "DATE=%y" -T "TRACKNUMBER=%n" -T "GENRE=%m" -T "COMMENT=%e" %s -o %d
TOC of the extracted CD
Track | Start | Length | Start sector | End sector --------------------------------------------------------- 1 | 0:00.00 | 3:22.43 | 0 | 15192 2 | 3:22.43 | 5:58.54 | 15193 | 42096 3 | 9:21.22 | 3:45.18 | 42097 | 58989 4 | 13:06.40 | 3:05.12 | 58990 | 72876 5 | 16:11.52 | 3:20.06 | 72877 | 87882 6 | 19:31.58 | 3:30.03 | 87883 | 103635 7 | 23:01.61 | 3:22.36 | 103636 | 118821 8 | 26:24.22 | 3:19.62 | 118822 | 133808 9 | 29:44.09 | 3:30.31 | 133809 | 149589 10 | 33:14.40 | 6:25.15 | 149590 | 178479
Range status and errors
Selected range
Filename D:\London Philharmonic Orchestra - Plays the music of Neil Diamond.wav
Peak level 92.7 % Range quality 100.0 % Copy CRC F9A947B0 Copy OK
No errors occurred
AccurateRip summary
Track 1 not present in databaseTrack 2 not present in databaseTrack 3 not present in databaseTrack 4 not present in databaseTrack 5 not present in databaseTrack 6 not present in databaseTrack 7 not present in databaseTrack 8 not present in databaseTrack 9 not present in databaseTrack 10 not present in database
None of the tracks are present in the AccurateRip database
End of status report



Показать сообщения:    

Текущее время: 09-Дек 12:46

Часовой пояс: UTC + 3


Вы не можете начинать темы
Вы не можете отвечать на сообщения
Вы не можете редактировать свои сообщения
Вы не можете удалять свои сообщения
Вы не можете голосовать в опросах
Вы не можете прикреплять файлы к сообщениям
Вы не можете скачивать файлы