(Neo-classical) Rondo Veneziano - Misteriosa Venezia - 1998, FLAC (image+.cue), lossless


 

[Цитировать]

Rondo Veneziano - Misteriosa Venezia
Жанр: Neo-classical
Год выпуска диска: 1998
Производитель диска: Украина/Label: Росток-Рекордс
Аудио кодек: FLAC
Тип рипа: image+.cue
Битрейт аудио: lossless
Продолжительность: 38:37
Трэклист:
01 - Misteriosa Venezia.
02 - Arcabaleno.
03 - Ritorno a Venezia.
04 - Armonie.
05 - Fiaba Antica 1a Parte.
06 - Vameo.
07 - Fiaba Antiva 2a Parte.
08 - Feste Veneziane.
09 - Affresco.
10 - Specchio Della Laguna.
11 - Porta D' Oriente.
11 - Porta D' Oriente.
12 - Corso Delle Gondole.
13 - Rive e Marine.
Дополнительная информация: Сканы 300 jpg

отчёт ЕАС

Exact Audio Copy V0.99 prebeta 4 from 23. January 2008
Отчёт EAC об извлечении, выполненном 23. августа 2009, 15:06
Rondo Veneziano / Misteriosa Venezia
Дисковод: TSSTcorpCDDVDW SH-S202J Adapter: 1 ID: 1
Режим чтения : Достоверность
Использование точного потока : Да
Отключение кэша аудио : Да
Использование указателей C2 : Нет
Коррекция смещения при чтении : 6
Способность читать области Lead-in и Lead-out : Нет
Заполнение пропущенных сэмплов тишиной : Да
Удаление блоков с тишиной в начале и конце : Нет
При вычислениях CRC использовались нулевые сэмплы : Да
Интерфейс : Установленный внешний ASPI-интерфейс
Выходной формат : Внутренние WAV-операции
Формат сэмплов : 44.100 Гц; 16 бит; стерео
TOC извлечённого CD
Трек | Старт | Длительность | Начальный сектор | Конечный сектор
---------------------------------------------------------------------
1 | 0:00.00 | 3:07.64 | 0 | 14088
2 | 3:07.64 | 3:31.23 | 14089 | 29936
3 | 6:39.12 | 3:10.51 | 29937 | 44237
4 | 9:49.63 | 2:38.15 | 44238 | 56102
5 | 12:28.03 | 2:47.52 | 56103 | 68679
6 | 15:15.55 | 3:44.32 | 68680 | 85511
7 | 19:00.12 | 1:36.14 | 85512 | 92725
8 | 20:36.26 | 2:30.22 | 92726 | 103997
9 | 23:06.48 | 3:23.28 | 103998 | 119250
10 | 26:30.01 | 4:11.68 | 119251 | 138143
11 | 30:41.69 | 3:16.52 | 138144 | 152895
12 | 33:58.46 | 2:27.44 | 152896 | 163964
13 | 36:26.15 | 2:11.27 | 163965 | 173816
Характеристики диапазона извлечения и сообщения об ошибках
Выбранный диапазон
Имя файла E:\РОЗДАЧА\Rondo Veneziano - Misteriosa Venezia.wav
Пиковый уровень 100.0 %
Качество диапазона 100.0 %
CRC теста E540833C
CRC копии E540833C
Копирование... OK
Ошибок не произошло
Конец отчёта

ОБРАТКА-BACK




Показать сообщения:    

Текущее время: 02-Дек 23:11

Часовой пояс: UTC + 3


Вы не можете начинать темы
Вы не можете отвечать на сообщения
Вы не можете редактировать свои сообщения
Вы не можете удалять свои сообщения
Вы не можете голосовать в опросах
Вы не можете прикреплять файлы к сообщениям
Вы не можете скачивать файлы