(classic / rock) Royal Philharmonic Orchestra London - Rock Dreams vol.1 - FLAC (image+cue), lossless


 

[Цитировать]


Royal Philharmonic Orchestra London - Rock Dreams vol.1
Жанр: classic / rock
Год выпуска диска: неизвестен. (на официальном сайте нет информации о нем)
Производитель диска: UK
Дирижёр: David Arnold; Matthew Freeman
Аудио кодек: FLAC
Тип рипа: image+cue
Битрейт аудио: lossless
Продолжительность: 1:12:54
Дополнительно: версия в MP3
Трэклист:
1. Africa 4:47
2. Another Brick In The Wall 4:54
3. The Power Of Love 4:01
4. In The Air Tonight 5:15
5. I Want To Know What Love Is 4:55
6. Since You've Been Gone 3:54
7. Yesterday 4:15
8. Without You 4:09
9. We Are The Champions 4:53
10. Don't Let The Sun Go Down On Me 4:39
11. Monday, Monday 4:33
12. A Whiter Shade Of Pale 4:39
13. Nights In White Satin 4:21
14. Let It Be 5:06
15. Hard To Say I'm Sorry 3:47
16. House Of The Rising Sun 4:45

log

Exact Audio Copy V0.99 prebeta 4 from 23. January 2008
EAC extraction logfile from 28. August 2008, 13:13
Royal Philharmonic Orchestra London / Rock Dreams
Used drive : HL-DT-STDVDRAM GH20NS10 Adapter: 1 ID: 0
Read mode : Secure
Utilize accurate stream : Yes
Defeat audio cache : No
Make use of C2 pointers : Yes
Read offset correction : 0
Overread into Lead-In and Lead-Out : No
Fill up missing offset samples with silence : Yes
Delete leading and trailing silent blocks : No
Null samples used in CRC calculations : No
Used interface : Native Win32 interface for Win NT & 2000
Used output format : User Defined Encoder
Selected bitrate : 768 kBit/s
Quality : High
Add ID3 tag : No
Command line compressor : C:\Program Files\Exact Audio Copy\FLAC\FLAC.EXE
Additional command line options : -6 -V -T "ARTIST=%a" -T "TITLE=%t" -T "ALBUM=%g" -T "DATE=%y" -T "TRACKNUMBER=%n" -T "GENRE=%m" -T "COMMENT=%e" %s -o %d
TOC of the extracted CD
Track | Start | Length | Start sector | End sector
---------------------------------------------------------
1 | 0:00.00 | 4:47.03 | 0 | 21527
2 | 4:47.03 | 4:54.50 | 21528 | 43627
3 | 9:41.53 | 4:01.65 | 43628 | 61767
4 | 13:43.43 | 5:15.02 | 61768 | 85394
5 | 18:58.45 | 4:55.73 | 85395 | 107592
6 | 23:54.43 | 3:54.47 | 107593 | 125189
7 | 27:49.15 | 4:15.60 | 125190 | 144374
8 | 32:05.00 | 4:09.58 | 144375 | 163107
9 | 36:14.58 | 4:53.35 | 163108 | 185117
10 | 41:08.18 | 4:39.05 | 185118 | 206047
11 | 45:47.23 | 4:33.00 | 206048 | 226522
12 | 50:20.23 | 4:39.35 | 226523 | 247482
13 | 54:59.58 | 4:21.25 | 247483 | 267082
14 | 59:21.08 | 5:06.57 | 267083 | 290089
15 | 64:27.65 | 3:47.65 | 290090 | 307179
16 | 68:15.55 | 4:45.58 | 307180 | 328612
Range status and errors
Selected range
Filename E:\Muzika\Rock Dreams\Royal Philharmonic Orchestra London - Rock Dreams.wav
Peak level 100.0 %
Range quality 100.0 %
Copy CRC 1A2E3F6C
Copy OK
No errors occurred
End of status report



Показать сообщения:    

Текущее время: 09-Дек 20:27

Часовой пояс: UTC + 3


Вы не можете начинать темы
Вы не можете отвечать на сообщения
Вы не можете редактировать свои сообщения
Вы не можете удалять свои сообщения
Вы не можете голосовать в опросах
Вы не можете прикреплять файлы к сообщениям
Вы не можете скачивать файлы