(Rock, Symphonic Rock, Easy Listening) The Royal Philharmonic Orchestra - Passing Open Windows: A Symphonic Tribute To Queen - 1996, APE (image+.cue), lossless


 

[Цитировать]

The Royal Philharmonic Orchestra - Passing Open Windows: A Symphonic Tribute To Queen
Жанр: Rock, Symphonic Rock, Easy Listening
Год выпуска диска: 1996
Производитель диска: Австрия
Аудио кодек: APE
Тип рипа: image+.cue
Битрейт аудио: lossless
Продолжительность: 58:41
Трэклист:
1. Prelude - Fanfare-Tie Your Mother Down (4:55)
2. Bicycle Race (3:20)
3. Somebody To Love (4:32)
4. Killer Queen (4:06)
5. Who Wants To Live Forever (6:41)
6. Interlude - Death On Two Legs (3:03)
7. Now I'm Here (4:20)
8. Innuendo (8:01)
9. Love Of My Life (4:18)
10. Keep Passing The Open Windows (5:23)
11. We Are The Champions (5:08)
12. Postlude - In Memeoriam...FM- MP(4:50)
Доп. информация: Дирижер - Дэвид Палмер
Коврики присутствуют.

скрытый текст

Exact Audio Copy V0.99 prebeta 5 from 4. May 2009
Отчёт EAC об извлечении, выполненном 13. августа 2009, 23:17
The Royal Philormonic Orchestra / Passing Open Windows
Дисковод: Optiarc DVD RW AD-7173A Adapter: 0 ID: 0
Режим чтения : Достоверность
Использование точного потока : Да
Отключение кэша аудио : Да
Использование указателей C2 : Нет
Коррекция смещения при чтении : 48
Способность читать области Lead-in и Lead-out : Нет
Заполнение пропущенных сэмплов тишиной : Да
Удаление блоков с тишиной в начале и конце : Нет
При вычислениях CRC использовались нулевые сэмплы : Да
Интерфейс : Установленный внешний ASPI-интерфейс
Выходной формат : Внутренние WAV-операции
Формат сэмплов : 44.100 Гц; 16 бит; стерео
TOC извлечённого CD
Трек | Старт | Длительность | Начальный сектор | Конечный сектор
---------------------------------------------------------------------
1 | 0:00.00 | 4:55.05 | 0 | 22129
2 | 4:55.05 | 3:20.60 | 22130 | 37189
3 | 8:15.65 | 4:32.32 | 37190 | 57621
4 | 12:48.22 | 4:06.10 | 57622 | 76081
5 | 16:54.32 | 6:41.23 | 76082 | 106179
6 | 23:35.55 | 3:03.60 | 106180 | 119964
7 | 26:39.40 | 4:20.45 | 119965 | 139509
8 | 31:00.10 | 8:01.45 | 139510 | 175629
9 | 39:01.55 | 4:18.05 | 175630 | 194984
10 | 43:19.60 | 5:22.67 | 194985 | 219201
11 | 48:42.52 | 5:08.43 | 219202 | 242344
12 | 53:51.20 | 4:50.20 | 242345 | 264114
Характеристики диапазона извлечения и сообщения об ошибках
Выбранный диапазон
Имя файла E:\Users\Виктор\Documents\The Royal Philormonic Orchestra - Passing Open Windows.wav
Пиковый уровень 99.8 %
Качество диапазона 99.9 %
CRC копии 91DF5DF2
Копирование... OK
Ошибок не произошло
AccurateRip: сводка
Трек 1 точное извлечение (доверие 2) [AAD15861]
Трек 2 точное извлечение (доверие 2) [8D4EDAE0]
Трек 3 точное извлечение (доверие 2) [39580362]
Трек 4 точное извлечение (доверие 2) [0D699EF4]
Трек 5 точное извлечение (доверие 2) [297B1F35]
Трек 6 точное извлечение (доверие 2) [9B334250]
Трек 7 точное извлечение (доверие 2) [CC36CF85]
Трек 8 точное извлечение (доверие 2) [2FBA0C40]
Трек 9 точное извлечение (доверие 2) [9ED1B7DF]
Трек 10 точное извлечение (доверие 2) [ED62CF2F]
Трек 11 точное извлечение (доверие 2) [746966B9]
Трек 12 точное извлечение (доверие 2) [3F1610F4]
Все треки извлечены точно
Конец отчёта



Показать сообщения:    

Текущее время: 11-Дек 09:08

Часовой пояс: UTC + 3


Вы не можете начинать темы
Вы не можете отвечать на сообщения
Вы не можете редактировать свои сообщения
Вы не можете удалять свои сообщения
Вы не можете голосовать в опросах
Вы не можете прикреплять файлы к сообщениям
Вы не можете скачивать файлы