(Easy Listening, Orchestral) Royal Philharmonic Orchestra - "Here comes the classics: volume eight" - 2003, APE (image+.cue), lossless


 

[Цитировать]

Royal Philharmonic Orchestra - "Here comes the classics: volume eight"
Жанр: Easy Listening, Orchestral
Год выпуска диска: 2003
Производитель диска: EU
Аудио кодек: APE
Тип рипа: image+.cue
Битрейт аудио: lossless
Продолжительность: 59:26
Трэклист:
1 Malcolm Arnold Allegro non troppo from Englifh dances
2 Eric Coates Calling all workers
3 Arthur Wood Barwick green from native health
4 Vivian Ellis Coronation scot
5 Haydn Wood The Bandstand Hyde Park from Frescoes
6 Eric Coates By the sleepy lagoon
7 Hubert Bath Cornish rhapsody
8 Robert Farnon Portrait of a flirt
9 Trevor Duncan March from little suite
10 Charles Williams Rhythm on railes
11 Arthur Benjamen Jamaican rumba
12 Edward White Puffin' billy
13 Antony Collins Vanity fair
14 Charles Williams Heart o'London
15 Edward Elgar Chanson de nuit
16 Robert Farnon Westminster waltz
17 Eric Coates The dam busters march
18 Charles Williams Devil's galop
Доп. информация: Conductor Barry Wordsworth
Piano Roderick Elms
Produced by Andrew Keener
Recorded at Henry Wond Hall, London, 4th 5th August 2003.
отчет EAC

скрытый текст

Exact Audio Copy V0.99 prebeta 4 from 23. January 2008
Отчёт EAC об извлечении, выполненном 5. августа 2009, 3:45
Royal Philharmonic Orchestra / Here Comes The Classic Vol. Eight
Дисковод: HL-DT-STDVD-RAM GSA-H55N Adapter: 0 ID: 1
Режим чтения : Достоверность
Использование точного потока : Да
Отключение кэша аудио : Да
Использование указателей C2 : Нет
Коррекция смещения при чтении : 102
Способность читать области Lead-in и Lead-out : Нет
Заполнение пропущенных сэмплов тишиной : Да
Удаление блоков с тишиной в начале и конце : Нет
При вычислениях CRC использовались нулевые сэмплы : Да
Интерфейс : Установленный внешний ASPI-интерфейс
Выходной формат : Внутренние WAV-операции
Формат сэмплов : 44.100 Гц; 16 бит; стерео
TOC извлечённого CD
Трек | Старт | Длительность | Начальный сектор | Конечный сектор
---------------------------------------------------------------------
1 | 0:00.00 | 3:03.60 | 0 | 13784
2 | 3:03.60 | 3:12.58 | 13785 | 28242
3 | 6:16.43 | 3:19.24 | 28243 | 43191
4 | 9:35.67 | 2:52.12 | 43192 | 56103
5 | 12:28.04 | 4:22.69 | 56104 | 75822
6 | 16:50.73 | 3:30.74 | 75823 | 91646
7 | 20:21.72 | 4:38.61 | 91647 | 112557
8 | 25:00.58 | 3:05.18 | 112558 | 126450
9 | 28:06.01 | 2:58.68 | 126451 | 139868
10 | 31:04.69 | 2:25.06 | 139869 | 150749
11 | 33:30.00 | 2:23.05 | 150750 | 161479
12 | 35:53.05 | 3:24.73 | 161480 | 176852
13 | 39:18.03 | 3:28.59 | 176853 | 192511
14 | 42:46.62 | 2:54.07 | 192512 | 205568
15 | 45:40.69 | 4:25.57 | 205569 | 225500
16 | 50:06.51 | 2:36.57 | 225501 | 237257
17 | 52:43.33 | 3:42.01 | 237258 | 253908
18 | 56:25.34 | 3:01.00 | 253909 | 267483
Характеристики диапазона извлечения и сообщения об ошибках
Выбранный диапазон
Имя файла D:\TORRENT\Music\ТОРРЕНТ\RoyalPhilharmonicOrchestra\Royal Philharmonic Orchestra - Here Comes The Classic Vol. Eight.wav
Пиковый уровень 98.2 %
Качество диапазона 99.9 %
CRC копии 2FE82F2B
Копирование... OK
Ошибок не произошло
Конец отчёта
не стесняемся использовать кнопку "спасибо"!



Показать сообщения:    

Текущее время: 05-Дек 03:31

Часовой пояс: UTC + 3


Вы не можете начинать темы
Вы не можете отвечать на сообщения
Вы не можете редактировать свои сообщения
Вы не можете удалять свои сообщения
Вы не можете голосовать в опросах
Вы не можете прикреплять файлы к сообщениям
Вы не можете скачивать файлы