(Classical, Instrumental, Tribute) String Quartet Tribute To Beatles, Pink Floyd, Radiohead, Nirvana, Muse, Smashing Pumpkins, Enya a.o. 15CD - 2002, FLAC (tracks+.cue), lossless


 

[Цитировать]

String Quartet Tribute To Beatles, Pink Floyd, Radiohead, Nirvana, Muse, Smashing Pumpkins, Enya a.o. 15CD
Жанр: Classical, Instrumental, Tribute
Год выпуска диска: 2002
Производитель диска: USA
Аудио кодек: FLAC
Тип рипа: tracks+.cue
Битрейт аудио: lossless
Продолжительность: 676:21 min
Трэклисты:

Tracklist Disc 1: Beatles vol.1

1. Come Together
2. Eleanor Rigby
3. Hello Goodbye
4. (Just Like) Starting Over
5. Penny Lane
6. Band On The
7. She Loves You
8. Beautiful Boy (Darling Boy)
9. All You Need Is Love
10. Hey Jude

Tracklist Disc 2: Beatles vol.2

1. A Hard Day's Night
2. Imagine
3. Let It Be
4. Can't Buy Me Love
5. Ticket To Ride
6. Instant Karma
7. Something
8. Yesterday
9. Nowhere Man
10. Mind Games

Tracklist Disc 3: Pink Floyd

01.Echoes (06:07)
02.Have a Cigar (04:40)
03.Take Up the Stethoscope and Walk (03:01)
04.Hey, You (05:00)
05.Comfortably Numb (07:12)
06.Money (04:43)
07.Breathe (04:35)
08.Another Brick in the Wall (05:09)
09.Wish You Were Here (05:25)
10.A Floydian Slip (05:18)

Tracklist Disc 4: Pink Floyd's The Wall

01. In the Flesh 4:02
02. Another Brick in the Wall Part 2 4:30
03. Mother 5:12
04. Goodbye Blue Sky 2:40
05. Young Lust 3:09
06. One of My Turns 2:48
07. Hey You 4:50
08. Nobody Home 3:17
09. Comfortably Numb 6:20
10. The Show Must Go On 1:38
11. Run Like Hell 4:20
12. The Trial 5:43

Tracklist Disc 5: Radiohead

01.Motion Picture Soundtrack (02:42)
02.You and Whose Army? (02:50)
03.My Iron Lung (04:17)
04.(Nice Dream) (03:23)
05.Permanent Daylight (02:33)
06.The National Anthem (05:07)
07.Idioteque (04:41)
08.Street Spirit (Fade Out) (04:00)
09.Just (03:20)
10.Morning Bell/Amnesiac (03:50)
11.Palo Alto (03:29)
12.There There (04:55)

Tracklist Disc 6: Nirvana

1. Rape Me 2:52
2. Come as You Are 3:41
3. Smells Like Teen Spirit 5:16
4. All Apologies 3:29
5. On a Plain 3:38
6. Polly 2:57
7. Heart Shaped Box 4:44
8. Penny Royal Tea 3:04
9. Something in the Way 3:32
10. Lamb Fed Child (Original Composition Inspired by the Music of Nirvana)

Tracklist Disc 7: U2

1. Where the Streets Have No Name Section 5:16
2. Mysterious Ways Stereofeed 4:21
3. I Will Follow Savitri String Quartet 3:33
4. Sunday Bloody Sunday Section 4:29
5. 40 Section 3:21
6. New Year's Day Savitri String Quartet 4:00
7. All I Want Is You Stereofeed 5:04
8. Desire Savitri String Quartet 2:01
9. I Still Haven't Found What I'm Looking For Savitri String Quartet 3:04
10. Bad Section 6:03
11. Sweetest Thing Savitri String Quartet 3:15
12. With or Without You Section 5:35

Tracklist Disc 8: Red Hot Chili Peppers

1. Under The Bridge
2. Californication
3. Other Side
4. Fortune Faded
5. Higher Ground
6. Breaking The Girl
7. Scar Tissue
8. Soul To Squeeze
9. By The Way
10. Aeroplane
Bonus Tracks:
11. Can't Stop
12. Suck My Kiss

Tracklist Disc 9: Tool's Aenima

01.Stinkfist (05:13)
02.Eulogy (08:28)
03.H. (06:27)
04.Useful Idiot (00:45)
05.Forty-Six & 2 (06:15)
06.Message to Harry Manback (01:53)
07.Hooker with a Penis (04:31)
08.Intermission (01:07)
09.Jimmy (05:29)
10.Die Eier Von Satan (02:22)
11.Pushit (07:47)
12.Cesaro Summability (01:26)
13.Aenema (06:19)
14.(-) Ions (04:02)
15.Third Eye (12:50)

Tracklist Disc 10: Incubus

1. Stellar (3:16)
2. Drive (3:46)
3. Pardon Me (3:39)
4. 11 AM (3:54)
5. I Miss You (2:30)
6. The Warmth (3:37)
7. Make Yourself (3:10)
8. Wish You Were Here (2:58)
9. Mexico (5:00)
10. Insomnia (4:03)

Tracklist Disc 11: Opeth

01.Porcelain Heart
02.Windowpane
03.Bleak
04.Harvest
05.Death Whispered a Lullaby
06.In My Time of Need
07.Dirge for November
08.Soldier of Fortune
09.The Funeral Portrait
10.Hope Leaves

Tracklist Disc 12: Smashing Pumpkins

01 1979
02 Zero
03 Aeroplane Flies High
04 Perfect
05 I Am One
06 Stand Inside Your Love
07 Galapogos
08 Eye
09 Soma
10 Today
11 Starla
12 The Prize Goes to The Ghost Children (Original composition inspired by the music of Smashing Pumpkins)

Tracklist Disc 13: Muse

01.Stockholm Syndrome (05:05)
02.Map of Your Head (03:50)
03.Time Is Running Out (03:58)
04.Muscle Museum (04:32)
05.In Your World (02:35)
06.Showbiz (05:00)
07.The Small Print (03:28)
08.Sunburn (03:44)
09.New Born (06:08)
10.Bliss (04:12)
11.Sing for Absolution (04:36)
12. Saving Grace (03:36)

Tracklist Disc 14: Enya

01 Book of Days
02 Wild Child
03 Boadicea
04 Storms in Africa
05 Caribbean Blue
06 Tempus Vernum
07 The Memory of Trees
08 Lazy Days
09 Shepherd Moons
10 Cursum Perficio
11 China Roses
12 Orinoco Flow

Tracklist Disc 15: Nine Inch Nails' Pretty Hate Machine

01 Head Like a Hole
02 Terrible Lie
03 Down in It
04 Sanctified
05 Something I Can Never Have
06 Kinda I Want To
07 Sin
08 That's What I Get
09 The Only Time
10 Ringfinger
Отчеты и логи:

Отчет EAC 1 Beatles 1

Exact Audio Copy V0.99 prebeta 4 from 23. January 2008
EAC extraction logfile from 12. May 2008, 12:46
The String Quartet / The String Quartet Tribute to The Beatles[The String Quartet]
Used drive : Optiarc CD-RW CRX880A Adapter: 1 ID: 0
Read mode : Secure
Utilize accurate stream : Yes
Defeat audio cache : Yes
Make use of C2 pointers : No
Read offset correction : 6
Overread into Lead-In and Lead-Out : No
Fill up missing offset samples with silence : Yes
Delete leading and trailing silent blocks : No
Null samples used in CRC calculations : Yes
Used interface : Native Win32 interface for Win NT & 2000
Gap handling : Appended to previous track
Used output format : User Defined Encoder
Selected bitrate : 192 kBit/s
Quality : High
Add ID3 tag : No
Command line compressor : C:\Program Files\Exact Audio Copy\Flac\flac.exe
Additional command line options : -8 -A tukey(0.25) -A gauss(0.1875) -b 4096 -V -T "artist=%a" -T "title=%t" -T "album=%g" -T "date=%y" -T "tracknumber=%n" -T "genre=%m" %s --sector-align
TOC of the extracted CD
Track | Start | Length | Start sector | End sector
---------------------------------------------------------
1 | 0:00.00 | 4:42.46 | 0 | 21195
2 | 4:42.46 | 2:13.35 | 21196 | 31205
3 | 6:56.06 | 3:20.63 | 31206 | 46268
4 | 10:16.69 | 3:17.12 | 46269 | 61055
5 | 13:34.06 | 3:03.19 | 61056 | 74799
6 | 16:37.25 | 5:04.53 | 74800 | 97652
7 | 21:42.03 | 2:14.72 | 97653 | 107774
8 | 23:57.00 | 2:59.39 | 107775 | 121238
9 | 26:56.39 | 4:31.12 | 121239 | 141575
10 | 31:27.51 | 5:46.36 | 141576 | 167561
Track 1
Filename C:\Documents and Settings\PeanutButterAnd\PeanutButter\Music\Vitamin String Quartet\The String Quartet Tribute To The Beatles\Come Together.wav
Pre-gap length 0:00:02.00
Peak level 98.8 %
Track quality 100.0 %
Test CRC B558E56B
Copy CRC B558E56B
Track not present in AccurateRip database
Copy OK
Track 2
Filename C:\Documents and Settings\PeanutButterAnd\PeanutButter\Music\Vitamin String Quartet\The String Quartet Tribute To The Beatles\Eleanor Rigby.wav
Pre-gap length 0:00:01.62
Peak level 90.6 %
Track quality 99.9 %
Test CRC C2CEC413
Copy CRC C2CEC413
Track not present in AccurateRip database
Copy OK
Track 3
Filename C:\Documents and Settings\PeanutButterAnd\PeanutButter\Music\Vitamin String Quartet\The String Quartet Tribute To The Beatles\Hello Goodbye.wav
Pre-gap length 0:00:00.30
Peak level 95.8 %
Track quality 100.0 %
Test CRC AA125FA0
Copy CRC AA125FA0
Track not present in AccurateRip database
Copy OK
Track 4
Filename C:\Documents and Settings\PeanutButterAnd\PeanutButter\Music\Vitamin String Quartet\The String Quartet Tribute To The Beatles\(Just Like) Starting Over.wav
Pre-gap length 0:00:00.17
Peak level 89.1 %
Track quality 100.0 %
Test CRC EED381C6
Copy CRC EED381C6
Track not present in AccurateRip database
Copy OK
Track 5
Filename C:\Documents and Settings\PeanutButterAnd\PeanutButter\Music\Vitamin String Quartet\The String Quartet Tribute To The Beatles\Penny Lane.wav
Pre-gap length 0:00:00.10
Peak level 98.8 %
Track quality 100.0 %
Test CRC 97350963
Copy CRC 97350963
Track not present in AccurateRip database
Copy OK
Track 6
Filename C:\Documents and Settings\PeanutButterAnd\PeanutButter\Music\Vitamin String Quartet\The String Quartet Tribute To The Beatles\Band on the Run.wav
Pre-gap length 0:00:00.37
Peak level 98.8 %
Track quality 100.0 %
Test CRC 27384871
Copy CRC 27384871
Track not present in AccurateRip database
Copy OK
Track 7
Filename C:\Documents and Settings\PeanutButterAnd\PeanutButter\Music\Vitamin String Quartet\The String Quartet Tribute To The Beatles\She Loves You.wav
Pre-gap length 0:00:00.30
Peak level 98.8 %
Track quality 100.0 %
Test CRC 8CD67072
Copy CRC 8CD67072
Track not present in AccurateRip database
Copy OK
Track 8
Filename C:\Documents and Settings\PeanutButterAnd\PeanutButter\Music\Vitamin String Quartet\The String Quartet Tribute To The Beatles\Beautiful Boy (Darling Boy).wav
Pre-gap length 0:00:00.73
Peak level 85.6 %
Track quality 100.0 %
Test CRC F3DC163B
Copy CRC F3DC163B
Track not present in AccurateRip database
Copy OK
Track 9
Filename C:\Documents and Settings\PeanutButterAnd\PeanutButter\Music\Vitamin String Quartet\The String Quartet Tribute To The Beatles\All You Need Is Love.wav
Pre-gap length 0:00:00.53
Peak level 98.8 %
Track quality 100.0 %
Test CRC 0B6BE992
Copy CRC 0B6BE992
Track not present in AccurateRip database
Copy OK
Track 10
Filename C:\Documents and Settings\PeanutButterAnd\PeanutButter\Music\Vitamin String Quartet\The String Quartet Tribute To The Beatles\Hey Jude.wav
Pre-gap length 0:00:00.57
Peak level 98.8 %
Track quality 100.0 %
Test CRC 454E9FF2
Copy CRC 454E9FF2
Track not present in AccurateRip database
Copy OK
None of the tracks are present in the AccurateRip database
No errors occurred
End of status report

Отчет EAC 2 Beatles 2

Exact Audio Copy V0.99 prebeta 4 from 23. January 2008
EAC extraction logfile from 12. May 2008, 13:41
The String Quartet / The String Quartet Tribute to The Beatles(CD-2 of 2)[The String Quartet]
Used drive : Optiarc CD-RW CRX880A Adapter: 1 ID: 0
Read mode : Secure
Utilize accurate stream : Yes
Defeat audio cache : Yes
Make use of C2 pointers : No
Read offset correction : 6
Overread into Lead-In and Lead-Out : No
Fill up missing offset samples with silence : Yes
Delete leading and trailing silent blocks : No
Null samples used in CRC calculations : Yes
Used interface : Native Win32 interface for Win NT & 2000
Gap handling : Appended to previous track
Used output format : User Defined Encoder
Selected bitrate : 192 kBit/s
Quality : High
Add ID3 tag : No
Command line compressor : C:\Program Files\Exact Audio Copy\Flac\flac.exe
Additional command line options : -8 -A tukey(0.25) -A gauss(0.1875) -b 4096 -V -T "artist=%a" -T "title=%t" -T "album=%g" -T "date=%y" -T "tracknumber=%n" -T "genre=%m" %s --sector-align
TOC of the extracted CD
Track | Start | Length | Start sector | End sector
---------------------------------------------------------
1 | 0:00.00 | 2:33.57 | 0 | 11531
2 | 2:33.57 | 2:50.15 | 11532 | 24296
3 | 5:23.72 | 3:50.07 | 24297 | 41553
4 | 9:14.04 | 2:18.73 | 41554 | 51976
5 | 11:33.02 | 3:11.37 | 51977 | 66338
6 | 14:44.39 | 3:23.72 | 66339 | 81635
7 | 18:08.36 | 3:08.50 | 81636 | 95785
8 | 21:17.11 | 2:07.04 | 95786 | 105314
9 | 23:24.15 | 2:43.15 | 105315 | 117554
10 | 26:07.30 | 4:17.72 | 117555 | 136901
Track 1
Filename C:\Documents and Settings\PeanutButterAnd\PeanutButter\Music\Vitamin String Quartet\The String Quartet Tribute To The Beatles\Disc 2\Hard Day's Night.wav
Pre-gap length 0:00:02.00
Peak level 98.8 %
Track quality 99.9 %
Test CRC 17064B08
Copy CRC 17064B08
Track not present in AccurateRip database
Copy OK
Track 2
Filename C:\Documents and Settings\PeanutButterAnd\PeanutButter\Music\Vitamin String Quartet\The String Quartet Tribute To The Beatles\Disc 2\Imagine.wav
Pre-gap length 0:00:00.05
Peak level 91.8 %
Track quality 100.0 %
Test CRC 0AE94639
Copy CRC 0AE94639
Track not present in AccurateRip database
Copy OK
Track 3
Filename C:\Documents and Settings\PeanutButterAnd\PeanutButter\Music\Vitamin String Quartet\The String Quartet Tribute To The Beatles\Disc 2\Let It Be.wav
Pre-gap length 0:00:00.04
Peak level 98.8 %
Track quality 100.0 %
Test CRC 21F8E5E6
Copy CRC 21F8E5E6
Track not present in AccurateRip database
Copy OK
Track 4
Filename C:\Documents and Settings\PeanutButterAnd\PeanutButter\Music\Vitamin String Quartet\The String Quartet Tribute To The Beatles\Disc 2\Can't Buy Me Love.wav
Pre-gap length 0:00:00.06
Peak level 98.8 %
Track quality 100.0 %
Test CRC 2497954C
Copy CRC 2497954C
Track not present in AccurateRip database
Copy OK
Track 5
Filename C:\Documents and Settings\PeanutButterAnd\PeanutButter\Music\Vitamin String Quartet\The String Quartet Tribute To The Beatles\Disc 2\Ticket To Ride.wav
Pre-gap length 0:00:00.04
Peak level 98.8 %
Track quality 100.0 %
Test CRC F981969C
Copy CRC F981969C
Track not present in AccurateRip database
Copy OK
Track 6
Filename C:\Documents and Settings\PeanutButterAnd\PeanutButter\Music\Vitamin String Quartet\The String Quartet Tribute To The Beatles\Disc 2\Instant Karma.wav
Pre-gap length 0:00:00.20
Peak level 95.5 %
Track quality 100.0 %
Test CRC 4F7A51FB
Copy CRC 4F7A51FB
Track not present in AccurateRip database
Copy OK
Track 7
Filename C:\Documents and Settings\PeanutButterAnd\PeanutButter\Music\Vitamin String Quartet\The String Quartet Tribute To The Beatles\Disc 2\Something.wav
Pre-gap length 0:00:00.16
Peak level 98.8 %
Track quality 100.0 %
Test CRC 12C1A81E
Copy CRC 12C1A81E
Track not present in AccurateRip database
Copy OK
Track 8
Filename C:\Documents and Settings\PeanutButterAnd\PeanutButter\Music\Vitamin String Quartet\The String Quartet Tribute To The Beatles\Disc 2\Yesterday.wav
Pre-gap length 0:00:00.24
Peak level 95.3 %
Track quality 100.0 %
Test CRC DEEF1D84
Copy CRC DEEF1D84
Track not present in AccurateRip database
Copy OK
Track 9
Filename C:\Documents and Settings\PeanutButterAnd\PeanutButter\Music\Vitamin String Quartet\The String Quartet Tribute To The Beatles\Disc 2\Nowhere Man.wav
Pre-gap length 0:00:00.16
Peak level 98.8 %
Track quality 100.0 %
Test CRC BD11F327
Copy CRC BD11F327
Track not present in AccurateRip database
Copy OK
Track 10
Filename C:\Documents and Settings\PeanutButterAnd\PeanutButter\Music\Vitamin String Quartet\The String Quartet Tribute To The Beatles\Disc 2\Mind Games.wav
Pre-gap length 0:00:00.44
Peak level 86.9 %
Track quality 100.0 %
Test CRC 4EDB69C0
Copy CRC 4EDB69C0
Track not present in AccurateRip database
Copy OK
None of the tracks are present in the AccurateRip database
No errors occurred
End of status report

Audiochecker log 3 Pink Floyd

AUDIOCHECKER v2.0 beta (build 457) - by Dester - opdester@freemail.hu
~~~~~~~~~~~~~~~~~~~~~~~~~~~~~~~~~~
Started at: пятница, 15. 05. 2009. - 8:11.59
10 files found
01 -===- D:\Docs\sasha\Мои документы\Download\String Quartet Tribute\To Pink Floyd\01 - Echoes.flac
Extracted successfully
Conclusion: this track is CDDA with probability 100%
Tempfile successfully deleted.
02 -===- D:\Docs\sasha\Мои документы\Download\String Quartet Tribute\To Pink Floyd\02 - Have a Cigar.flac
Extracted successfully
Conclusion: this track is CDDA with probability 100%
Tempfile successfully deleted.
03 -===- D:\Docs\sasha\Мои документы\Download\String Quartet Tribute\To Pink Floyd\03 - Take Up Thy Stethoscope and Walk.flac
Extracted successfully
Conclusion: this track is CDDA with probability 100%
Tempfile successfully deleted.
04 -===- D:\Docs\sasha\Мои документы\Download\String Quartet Tribute\To Pink Floyd\04 - Hey You.flac
Extracted successfully
Conclusion: this track is CDDA with probability 100%
Tempfile successfully deleted.
05 -===- D:\Docs\sasha\Мои документы\Download\String Quartet Tribute\To Pink Floyd\05 - Comfortably Numb.flac
Extracted successfully
Conclusion: this track is CDDA with probability 100%
Tempfile successfully deleted.
06 -===- D:\Docs\sasha\Мои документы\Download\String Quartet Tribute\To Pink Floyd\06 - Money.flac
Extracted successfully
Conclusion: this track is CDDA with probability 100%
Tempfile successfully deleted.
07 -===- D:\Docs\sasha\Мои документы\Download\String Quartet Tribute\To Pink Floyd\07 - Breathe.flac
Extracted successfully
Conclusion: this track is CDDA with probability 100%
Tempfile successfully deleted.
08 -===- D:\Docs\sasha\Мои документы\Download\String Quartet Tribute\To Pink Floyd\08 - Another Brick in the Wall.flac
Extracted successfully
Conclusion: this track is CDDA with probability 100%
Tempfile successfully deleted.
09 -===- D:\Docs\sasha\Мои документы\Download\String Quartet Tribute\To Pink Floyd\09 - Wish You Were Here.flac
Extracted successfully
Conclusion: this track is CDDA with probability 100%
Tempfile successfully deleted.
10 -===- D:\Docs\sasha\Мои документы\Download\String Quartet Tribute\To Pink Floyd\10 - A Floydian Slip.flac
Extracted successfully
Conclusion: this track is CDDA with probability 100%
Tempfile successfully deleted.
Finished at: пятница, 15. 05. 2009. - 8:19.16 (operation time: 0:07.16)

X Lossless Decoder log 3 Pink Floyd

X Lossless Decoder version 20090320 (105.1)
XLD extraction logfile from 2009-05-13 15:17:18 -0400
The String Quartet / The String Quartet Tribute to Pink Floyd
Used drive : MATSHITA DVD-R UJ-857D (revision KBVB)
Use cdparanoia mode : YES (CDParanoia III 10.2 engine)
Disable audio cache : OK for the drive with cache less than 2750KB
Make use of C2 pointers : NO
Read offset correction : 102
Max retry count : 100
TOC of the extracted CD
Track | Start | Length | Start sector | End sector
---------------------------------------------------------
1 | 00:00:06 | 06:07:24 | 6 | 27554
2 | 06:07:30 | 04:40:33 | 27555 | 48587
3 | 10:47:63 | 03:01:71 | 48588 | 62233
4 | 13:49:59 | 05:00:06 | 62234 | 84739
5 | 18:49:65 | 07:12:52 | 84740 | 117191
6 | 26:02:42 | 04:43:19 | 117192 | 138435
7 | 30:45:61 | 04:35:25 | 138436 | 159085
8 | 35:21:11 | 05:09:18 | 159086 | 182278
9 | 40:30:29 | 05:25:70 | 182279 | 206723
10 | 45:56:24 | 05:18:27 | 206724 | 230600
Track 01
Filename : /Users/apple/Desktop/String/01 - Echoes.flac
CRC32 hash (test run) : 90BE06B8
CRC32 hash : 90BE06B8
CRC32 hash (skip zero) : 1620833B
AccurateRip signature : 7C7393C2
->Accurately ripped! (confidence 2)
Statistics
Read error : 0
Skipped (treated as error) : 0
Edge jitter error (maybe fixed) : 0
Atom jitter error (maybe fixed) : 0
Drift error (maybe fixed) : 0
Dropped bytes error (maybe fixed) : 0
Duplicated bytes error (maybe fixed) : 0
Inconsistency in error sectors : 0
Track 02
Filename : /Users/apple/Desktop/String/02 - Have a Cigar.flac
CRC32 hash (test run) : 6D3C100E
CRC32 hash : 6D3C100E
CRC32 hash (skip zero) : 402613BD
AccurateRip signature : 41E1A0D1
->Accurately ripped! (confidence 2)
Statistics
Read error : 0
Skipped (treated as error) : 0
Edge jitter error (maybe fixed) : 0
Atom jitter error (maybe fixed) : 0
Drift error (maybe fixed) : 0
Dropped bytes error (maybe fixed) : 0
Duplicated bytes error (maybe fixed) : 0
Inconsistency in error sectors : 0
Track 03
Filename : /Users/apple/Desktop/String/03 - Take Up Thy Stethoscope and Walk.flac
CRC32 hash (test run) : 468BBF8F
CRC32 hash : 468BBF8F
CRC32 hash (skip zero) : 7FC2B0CA
AccurateRip signature : B392A427
->Accurately ripped! (confidence 2)
Statistics
Read error : 0
Skipped (treated as error) : 0
Edge jitter error (maybe fixed) : 0
Atom jitter error (maybe fixed) : 0
Drift error (maybe fixed) : 0
Dropped bytes error (maybe fixed) : 0
Duplicated bytes error (maybe fixed) : 0
Inconsistency in error sectors : 0
Track 04
Filename : /Users/apple/Desktop/String/04 - Hey You.flac
CRC32 hash (test run) : 0DA45D55
CRC32 hash : 0DA45D55
CRC32 hash (skip zero) : 226D846B
AccurateRip signature : 67ED8D0A
->Accurately ripped! (confidence 2)
Statistics
Read error : 0
Skipped (treated as error) : 0
Edge jitter error (maybe fixed) : 0
Atom jitter error (maybe fixed) : 0
Drift error (maybe fixed) : 0
Dropped bytes error (maybe fixed) : 0
Duplicated bytes error (maybe fixed) : 0
Inconsistency in error sectors : 0
Track 05
Filename : /Users/apple/Desktop/String/05 - Comfortably Numb.flac
CRC32 hash (test run) : 19946546
CRC32 hash : 19946546
CRC32 hash (skip zero) : F4E6CA4B
AccurateRip signature : B1CB00AD
->Accurately ripped! (confidence 2)
Statistics
Read error : 0
Skipped (treated as error) : 0
Edge jitter error (maybe fixed) : 0
Atom jitter error (maybe fixed) : 0
Drift error (maybe fixed) : 0
Dropped bytes error (maybe fixed) : 0
Duplicated bytes error (maybe fixed) : 0
Inconsistency in error sectors : 0
Track 06
Filename : /Users/apple/Desktop/String/06 - Money.flac
CRC32 hash (test run) : 4D712267
CRC32 hash : 4D712267
CRC32 hash (skip zero) : 442C1B69
AccurateRip signature : ED140C3A
->Accurately ripped! (confidence 2)
Statistics
Read error : 0
Skipped (treated as error) : 0
Edge jitter error (maybe fixed) : 0
Atom jitter error (maybe fixed) : 0
Drift error (maybe fixed) : 0
Dropped bytes error (maybe fixed) : 0
Duplicated bytes error (maybe fixed) : 0
Inconsistency in error sectors : 0
Track 07
Filename : /Users/apple/Desktop/String/07 - Breathe.flac
CRC32 hash (test run) : 353C2AAA
CRC32 hash : 353C2AAA
CRC32 hash (skip zero) : 24EAC18F
AccurateRip signature : 713CAB87
->Accurately ripped! (confidence 2)
Statistics
Read error : 0
Skipped (treated as error) : 0
Edge jitter error (maybe fixed) : 0
Atom jitter error (maybe fixed) : 0
Drift error (maybe fixed) : 0
Dropped bytes error (maybe fixed) : 0
Duplicated bytes error (maybe fixed) : 0
Inconsistency in error sectors : 0
Track 08
Filename : /Users/apple/Desktop/String/08 - Another Brick in the Wall.flac
CRC32 hash (test run) : 47781147
CRC32 hash : 47781147
CRC32 hash (skip zero) : 61885BB1
AccurateRip signature : A0D666E8
->Accurately ripped! (confidence 2)
Statistics
Read error : 0
Skipped (treated as error) : 0
Edge jitter error (maybe fixed) : 0
Atom jitter error (maybe fixed) : 0
Drift error (maybe fixed) : 0
Dropped bytes error (maybe fixed) : 0
Duplicated bytes error (maybe fixed) : 0
Inconsistency in error sectors : 0
Track 09
Filename : /Users/apple/Desktop/String/09 - Wish You Were Here.flac
CRC32 hash (test run) : 16EA69EF
CRC32 hash : 16EA69EF
CRC32 hash (skip zero) : 9FAEBEE5
AccurateRip signature : 9F5186F1
->Accurately ripped! (confidence 2)
Statistics
Read error : 0
Skipped (treated as error) : 0
Edge jitter error (maybe fixed) : 0
Atom jitter error (maybe fixed) : 0
Drift error (maybe fixed) : 0
Dropped bytes error (maybe fixed) : 0
Duplicated bytes error (maybe fixed) : 0
Inconsistency in error sectors : 0
Track 10
Filename : /Users/apple/Desktop/String/10 - A Floydian Slip.flac
CRC32 hash (test run) : 4966FB9A
CRC32 hash : 4966FB9A
CRC32 hash (skip zero) : 5151539D
AccurateRip signature : D14D6022
->Accurately ripped! (confidence 2)
Statistics
Read error : 0
Skipped (treated as error) : 0
Edge jitter error (maybe fixed) : 0
Atom jitter error (maybe fixed) : 0
Drift error (maybe fixed) : 0
Dropped bytes error (maybe fixed) : 0
Duplicated bytes error (maybe fixed) : 0
Inconsistency in error sectors : 0
No errors occurred
End of status report

Отчет EAC 4 Pink Floyd's The Wall

Exact Audio Copy V0.99 prebeta 4 from 23. January 2008
EAC extraction logfile from 20. October 2008, 21:38
Various Artists / More Bricks - The String Quartet Tribute to Pink Floyd's The Wall
Used drive : HP DVD Writer 840d Adapter: 3 ID: 0
Read mode : Secure
Utilize accurate stream : Yes
Defeat audio cache : Yes
Make use of C2 pointers : No
Read offset correction : 6
Overread into Lead-In and Lead-Out : No
Fill up missing offset samples with silence : Yes
Delete leading and trailing silent blocks : No
Null samples used in CRC calculations : Yes
Used interface : Native Win32 interface for Win NT & 2000
Gap handling : Appended to previous track
Used output format : User Defined Encoder
Selected bitrate : 128 kBit/s
Quality : High
Add ID3 tag : No
Command line compressor : C:\Program Files\Exact Audio Copy\Flac\flac.exe
Additional command line options : -V -8 -T "artist=%a" -T "title=%t" -T "album=%g" -T "date=%y" -T "tracknumber=%n" -T "genre=%m" %s
TOC of the extracted CD
Track | Start | Length | Start sector | End sector
---------------------------------------------------------
1 | 0:00.00 | 4:02.01 | 0 | 18150
2 | 4:02.01 | 4:30.21 | 18151 | 38421
3 | 8:32.22 | 5:12.53 | 38422 | 61874
4 | 13:45.00 | 2:40.00 | 61875 | 73874
5 | 16:25.00 | 3:09.00 | 73875 | 88049
6 | 19:34.00 | 2:48.00 | 88050 | 100649
7 | 22:22.00 | 4:50.00 | 100650 | 122399
8 | 27:12.00 | 3:17.55 | 122400 | 137229
9 | 30:29.55 | 6:21.33 | 137230 | 165837
10 | 36:51.13 | 1:38.42 | 165838 | 173229
11 | 38:29.55 | 4:20.20 | 173230 | 192749
12 | 42:50.00 | 5:44.09 | 192750 | 218558
Track 1
Filename E:\EAC RIPS\Various Artists,More Bricks - The String Quartet Tribute to Pink Floyd's The Wall,01 - In The Flesh.wav
Pre-gap length 0:00:02.00
Peak level 100.0 %
Track quality 100.0 %
Test CRC 544F374D
Copy CRC 544F374D
Track not present in AccurateRip database
Copy OK
Track 2
Filename E:\EAC RIPS\Various Artists,More Bricks - The String Quartet Tribute to Pink Floyd's The Wall,02 - Another Brick in the Wall Part 2.wav
Peak level 100.0 %
Track quality 99.9 %
Test CRC 9F76796C
Copy CRC 9F76796C
Track not present in AccurateRip database
Copy OK
Track 3
Filename E:\EAC RIPS\Various Artists,More Bricks - The String Quartet Tribute to Pink Floyd's The Wall,03 - Mother.wav
Peak level 100.0 %
Track quality 100.0 %
Test CRC 23E7C398
Copy CRC 23E7C398
Track not present in AccurateRip database
Copy OK
Track 4
Filename E:\EAC RIPS\Various Artists,More Bricks - The String Quartet Tribute to Pink Floyd's The Wall,04 - Goodbye Blue Sky.wav
Peak level 100.0 %
Track quality 100.0 %
Test CRC 5E46ED09
Copy CRC 5E46ED09
Track not present in AccurateRip database
Copy OK
Track 5
Filename E:\EAC RIPS\Various Artists,More Bricks - The String Quartet Tribute to Pink Floyd's The Wall,05 - Young Lust.wav
Peak level 100.0 %
Track quality 100.0 %
Test CRC 2699D2EE
Copy CRC 2699D2EE
Track not present in AccurateRip database
Copy OK
Track 6
Filename E:\EAC RIPS\Various Artists,More Bricks - The String Quartet Tribute to Pink Floyd's The Wall,06 - One of My Turns.wav
Peak level 100.0 %
Track quality 99.9 %
Test CRC 3B84B14E
Copy CRC 3B84B14E
Track not present in AccurateRip database
Copy OK
Track 7
Filename E:\EAC RIPS\Various Artists,More Bricks - The String Quartet Tribute to Pink Floyd's The Wall,07 - Hey You.wav
Peak level 100.0 %
Track quality 100.0 %
Test CRC C06D1F17
Copy CRC C06D1F17
Track not present in AccurateRip database
Copy OK
Track 8
Filename E:\EAC RIPS\Various Artists,More Bricks - The String Quartet Tribute to Pink Floyd's The Wall,08 - Nobody Home.wav
Peak level 100.0 %
Track quality 100.0 %
Test CRC 7BB4ED19
Copy CRC 7BB4ED19
Track not present in AccurateRip database
Copy OK
Track 9
Filename E:\EAC RIPS\Various Artists,More Bricks - The String Quartet Tribute to Pink Floyd's The Wall,09 - Comfortably Numb.wav
Peak level 100.0 %
Track quality 100.0 %
Test CRC 9B7B0070
Copy CRC 9B7B0070
Track not present in AccurateRip database
Copy OK
Track 10
Filename E:\EAC RIPS\Various Artists,More Bricks - The String Quartet Tribute to Pink Floyd's The Wall,10 - The Show Must Go On.wav
Peak level 100.0 %
Track quality 100.0 %
Test CRC 7BEE8696
Copy CRC 7BEE8696
Track not present in AccurateRip database
Copy OK
Track 11
Filename E:\EAC RIPS\Various Artists,More Bricks - The String Quartet Tribute to Pink Floyd's The Wall,11 - Run Like Hell.wav
Peak level 100.0 %
Track quality 100.0 %
Test CRC F592AFFF
Copy CRC F592AFFF
Track not present in AccurateRip database
Copy OK
Track 12
Filename E:\EAC RIPS\Various Artists,More Bricks - The String Quartet Tribute to Pink Floyd's The Wall,12 - The Trial.wav
Peak level 100.0 %
Track quality 100.0 %
Test CRC 029C4260
Copy CRC 029C4260
Track not present in AccurateRip database
Copy OK
None of the tracks are present in the AccurateRip database
No errors occurred
End of status report

Отчет EAC 5 Radiohead

Exact Audio Copy V0.99 prebeta 4 from 23. January 2008
EAC extraction logfile from 13. October 2008, 10:37
The String Quartet Tribute to Radiohead / Enigmatic
Used drive : MATSHITADVD/CDRW UJDA770 Adapter: 2 ID: 0
Read mode : Secure
Utilize accurate stream : Yes
Defeat audio cache : Yes
Make use of C2 pointers : No
Read offset correction : 102
Overread into Lead-In and Lead-Out : No
Fill up missing offset samples with silence : Yes
Delete leading and trailing silent blocks : No
Null samples used in CRC calculations : No
Used interface : Installed external ASPI interface
Gap handling : Appended to previous track
Used output format : User Defined Encoder
Selected bitrate : 192 kBit/s
Quality : High
Add ID3 tag : No
Command line compressor : C:\Program Files\Exact Audio Copy\Flac\flac.exe
Additional command line options : -8 -A tukey(0.25) -A gauss(0.1875) -b 4096 -V -T "artist=%a" -T "title=%t" -T "album=%g" -T "date=%y" -T "tracknumber=%n" -T "genre=%m" %s --sector-align
TOC of the extracted CD
Track | Start | Length | Start sector | End sector
---------------------------------------------------------
1 | 0:00.00 | 2:42.51 | 0 | 12200
2 | 2:42.51 | 2:50.64 | 12201 | 25014
3 | 5:33.40 | 4:17.52 | 25015 | 44341
4 | 9:51.17 | 3:23.24 | 44342 | 59590
5 | 13:14.41 | 2:33.50 | 59591 | 71115
6 | 15:48.16 | 5:07.00 | 71116 | 94140
7 | 20:55.16 | 4:41.10 | 94141 | 115225
8 | 25:36.26 | 4:00.16 | 115226 | 133241
9 | 29:36.42 | 3:20.17 | 133242 | 148258
10 | 32:56.59 | 3:50.17 | 148259 | 165525
11 | 36:47.01 | 3:29.68 | 165526 | 181268
12 | 40:16.69 | 4:55.32 | 181269 | 203425
Track 1
Filename E:\Music\The Section Quartet\The Section Quartet-Engimatic_ The String Quartet Tribute To Radiohead-2003\01. The String Quartet Tribute to Radiohead - Motion Picture Soundtrack.wav
Pre-gap length 0:00:02.00
Peak level 59.4 %
Track quality 99.9 %
Copy CRC 2112962D
Accurately ripped (confidence 2) [72C6E532]
Copy OK
Track 2
Filename E:\Music\The Section Quartet\The Section Quartet-Engimatic_ The String Quartet Tribute To Radiohead-2003\02. The String Quartet Tribute to Radiohead - You and Whose Army .wav
Pre-gap length 0:00:00.67
Peak level 87.9 %
Track quality 100.0 %
Copy CRC F790F155
Track not present in AccurateRip database
Copy OK
Track 3
Filename E:\Music\The Section Quartet\The Section Quartet-Engimatic_ The String Quartet Tribute To Radiohead-2003\03. The String Quartet Tribute to Radiohead - My Iron Lung.wav
Pre-gap length 0:00:00.33
Peak level 99.7 %
Track quality 99.9 %
Copy CRC BC3C58B6
Accurately ripped (confidence 2) [92F8E9ED]
Copy OK
Track 4
Filename E:\Music\The Section Quartet\The Section Quartet-Engimatic_ The String Quartet Tribute To Radiohead-2003\04. The String Quartet Tribute to Radiohead - (Nice Dream).wav
Pre-gap length 0:00:00.26
Peak level 99.7 %
Track quality 100.0 %
Copy CRC E4C4AB25
Accurately ripped (confidence 2) [499B3FCF]
Copy OK
Track 5
Filename E:\Music\The Section Quartet\The Section Quartet-Engimatic_ The String Quartet Tribute To Radiohead-2003\05. The String Quartet Tribute to Radiohead - Permanent Daylight.wav
Pre-gap length 0:00:00.38
Peak level 71.0 %
Track quality 100.0 %
Copy CRC 7A3B7CFE
Accurately ripped (confidence 2) [B69053F4]
Copy OK
Track 6
Filename E:\Music\The Section Quartet\The Section Quartet-Engimatic_ The String Quartet Tribute To Radiohead-2003\06. The String Quartet Tribute to Radiohead - The National Anthem.wav
Pre-gap length 0:00:00.36
Peak level 99.7 %
Track quality 100.0 %
Copy CRC EAFBAC3C
Accurately ripped (confidence 2) [77E55DD1]
Copy OK
Track 7
Filename E:\Music\The Section Quartet\The Section Quartet-Engimatic_ The String Quartet Tribute To Radiohead-2003\07. The String Quartet Tribute to Radiohead - Idioteque.wav
Pre-gap length 0:00:00.20
Peak level 96.5 %
Track quality 100.0 %
Copy CRC E3C58369
Track not present in AccurateRip database
Copy OK
Track 8
Filename E:\Music\The Section Quartet\The Section Quartet-Engimatic_ The String Quartet Tribute To Radiohead-2003\08. The String Quartet Tribute to Radiohead - Street Spirit (Fade Out).wav
Peak level 81.3 %
Track quality 100.0 %
Copy CRC 35432801
Accurately ripped (confidence 2) [37FA8B07]
Copy OK
Track 9
Filename E:\Music\The Section Quartet\The Section Quartet-Engimatic_ The String Quartet Tribute To Radiohead-2003\09. The String Quartet Tribute to Radiohead - Just.wav
Pre-gap length 0:00:00.35
Peak level 99.7 %
Track quality 99.9 %
Copy CRC BC22644B
Accurately ripped (confidence 2) [EE64EB59]
Copy OK
Track 10
Filename E:\Music\The Section Quartet\The Section Quartet-Engimatic_ The String Quartet Tribute To Radiohead-2003\10. The String Quartet Tribute to Radiohead - Morning Bell,Amnesiac.wav
Pre-gap length 0:00:00.73
Peak level 74.1 %
Track quality 100.0 %
Copy CRC 409F1D47
Accurately ripped (confidence 2) [B9139D55]
Copy OK
Track 11
Filename E:\Music\The Section Quartet\The Section Quartet-Engimatic_ The String Quartet Tribute To Radiohead-2003\11. The String Quartet Tribute to Radiohead - Palo Alto.wav
Pre-gap length 0:00:00.23
Peak level 99.6 %
Track quality 100.0 %
Copy CRC C34113A6
Accurately ripped (confidence 2) [B1C0453E]
Copy OK
Track 12
Filename E:\Music\The Section Quartet\The Section Quartet-Engimatic_ The String Quartet Tribute To Radiohead-2003\12. The String Quartet Tribute to Radiohead - There There.wav
Pre-gap length 0:00:02.72
Peak level 85.3 %
Track quality 100.0 %
Copy CRC B1AFDB20
Track not present in AccurateRip database
Copy OK
9 track(s) accurately ripped
3 track(s) not present in the AccurateRip database
Some tracks could not be verified as accurate
No errors occurred
End of status report

Отчет EAC 6 Nirvana

Exact Audio Copy V0.99 prebeta 3 from 28. July 2007
EAC extraction logfile from 30. March 2008, 3:55
Various / The String Tribute to Nirvana
Used drive : _NEC DVD_RW ND-3550A Adapter: 1 ID: 0
Read mode : Secure
Utilize accurate stream : Yes
Defeat audio cache : No
Make use of C2 pointers : Yes
Read offset correction : 48
Overread into Lead-In and Lead-Out : No
Fill up missing offset samples with silence : Yes
Delete leading and trailing silent blocks : No
Null samples used in CRC calculations : No
Used interface : Installed external ASPI interface
Gap handling : Not detected, thus appended to previous track
Used output format : User Defined Encoder
Selected bitrate : 128 kBit/s
Quality : High
Add ID3 tag : No
Command line compressor : C:\Program Files\Exact Audio Copy\flac.exe
Additional command line options : --best -T "ARTIST=%a" -T "TITLE=%t" -T "ALBUM=%g" -T "DATE=%y" -T "TRACKNUMBER=%n" -T "GENRE=%m" %s
TOC of the extracted CD
Track | Start | Length | Start sector | End sector
---------------------------------------------------------
1 | 0:00.00 | 2:52.59 | 0 | 12958
2 | 2:52.59 | 3:41.32 | 12959 | 29565
3 | 6:34.16 | 5:16.02 | 29566 | 53267
4 | 11:50.18 | 3:29.51 | 53268 | 68993
5 | 15:19.69 | 3:38.66 | 68994 | 85409
6 | 18:58.60 | 2:57.37 | 85410 | 98721
7 | 21:56.22 | 4:44.19 | 98722 | 120040
8 | 26:40.41 | 3:04.12 | 120041 | 133852
9 | 29:44.53 | 3:32.36 | 133853 | 149788
10 | 33:17.14 | 2:38.44 | 149789 | 161682
Track 1
Filename G:\audio_rips\Classical\Various Artists\The String Tribute to Nirvana\01-Todd Rubenstein - Rape Me.wav
Peak level 82.4 %
Track quality 100.0 %
Test CRC FF58CBFB
Copy CRC FF58CBFB
Copy OK
Track 2
Filename G:\audio_rips\Classical\Various Artists\The String Tribute to Nirvana\02-Michael J. McEvoy - Come As You Are.wav
Peak level 80.7 %
Track quality 100.0 %
Test CRC F4339C77
Copy CRC F4339C77
Copy OK
Track 3
Filename G:\audio_rips\Classical\Various Artists\The String Tribute to Nirvana\03-Todd Rubenstein - Smells Like Teen Spirit.wav
Peak level 82.1 %
Track quality 100.0 %
Test CRC E44470EA
Copy CRC E44470EA
Copy OK
Track 4
Filename G:\audio_rips\Classical\Various Artists\The String Tribute to Nirvana\04-Michael J. McEvoy - All Apologies.wav
Peak level 85.3 %
Track quality 100.0 %
Test CRC C628DD2C
Copy CRC C628DD2C
Copy OK
Track 5
Filename G:\audio_rips\Classical\Various Artists\The String Tribute to Nirvana\05-Tom Tally - On a Plain.wav
Peak level 80.9 %
Track quality 100.0 %
Test CRC 0DB23358
Copy CRC 0DB23358
Copy OK
Track 6
Filename G:\audio_rips\Classical\Various Artists\The String Tribute to Nirvana\06-Todd Rubenstein - Polly.wav
Peak level 82.0 %
Track quality 100.0 %
Test CRC A48576D9
Copy CRC A48576D9
Copy OK
Track 7
Filename G:\audio_rips\Classical\Various Artists\The String Tribute to Nirvana\07-Tom Tally - Heart Shaped Box.wav
Peak level 80.5 %
Track quality 100.0 %
Test CRC A496BA2D
Copy CRC A496BA2D
Copy OK
Track 8
Filename G:\audio_rips\Classical\Various Artists\The String Tribute to Nirvana\08-Michael J. McEvoy - Penny Royal Tea.wav
Peak level 81.1 %
Track quality 100.0 %
Test CRC 8A82A4B2
Copy CRC 8A82A4B2
Copy OK
Track 9
Filename G:\audio_rips\Classical\Various Artists\The String Tribute to Nirvana\09-Tom Tally - Something in the Way.wav
Peak level 82.0 %
Track quality 100.0 %
Test CRC BAE3BC49
Copy CRC BAE3BC49
Copy OK
Track 10
Filename G:\audio_rips\Classical\Various Artists\The String Tribute to Nirvana\10-Todd Rubenstein - Lamb Fed Child (original composition).wav
Peak level 81.6 %
Track quality 100.0 %
Test CRC B4E49756
Copy CRC B4E49756
Copy OK
No errors occurred
End of status report

Отчет EAC 7 U2

Exact Audio Copy V0.99 prebeta 4 from 23. January 2008
EAC extraction logfile from 28. November 2008, 16:24
The String Quartet - Tribute to U2 / Strung Out on U2: The String Quartet Tribute
Used drive : ATAPI DVD W DH16W1P Adapter: 1 ID: 0
Read mode : Secure
Utilize accurate stream : Yes
Defeat audio cache : Yes
Make use of C2 pointers : No
Read offset correction : 6
Overread into Lead-In and Lead-Out : No
Fill up missing offset samples with silence : Yes
Delete leading and trailing silent blocks : No
Null samples used in CRC calculations : Yes
Used interface : Native Win32 interface for Win NT & 2000
Gap handling : Appended to next track
Used output format : User Defined Encoder
Selected bitrate : 768 kBit/s
Quality : High
Add ID3 tag : No
Command line compressor : C:\Program Files\Exact Audio Copy\FLAC\FLAC.EXE
Additional command line options : -V -8 -T "artist=%a" -T "title=%t" -T "album=%g" -T "date=%y" -T "tracknumber=%n" -T "genre=%m" %s
TOC of the extracted CD
Track | Start | Length | Start sector | End sector
---------------------------------------------------------
1 | 0:00.00 | 5:16.42 | 0 | 23741
2 | 5:16.42 | 4:21.60 | 23742 | 43376
3 | 9:38.27 | 3:33.17 | 43377 | 59368
4 | 13:11.44 | 4:29.09 | 59369 | 79552
5 | 17:40.53 | 3:21.15 | 79553 | 94642
6 | 21:01.68 | 4:00.23 | 94643 | 112665
7 | 25:02.16 | 5:04.15 | 112666 | 135480
8 | 30:06.31 | 2:01.48 | 135481 | 144603
9 | 32:08.04 | 3:04.09 | 144604 | 158412
10 | 35:12.13 | 6:03.36 | 158413 | 185673
11 | 41:15.49 | 3:15.49 | 185674 | 200347
12 | 44:31.23 | 5:35.68 | 200348 | 225540
Track 1
Filename C:\EAC Rips\01 - Where the Streets Have No Name.wav
Pre-gap length 0:00:02.00
Peak level 99.0 %
Track quality 100.0 %
Test CRC EBC7DB5E
Copy CRC EBC7DB5E
Accurately ripped (confidence 2) [645E00B8]
Copy OK
Track 2
Filename C:\EAC Rips\02 - Mysterious Ways.wav
Pre-gap length 0:00:03.30
Peak level 94.8 %
Track quality 100.0 %
Test CRC 4877D74C
Copy CRC 4877D74C
Accurately ripped (confidence 2) [5FC11EDC]
Copy OK
Track 3
Filename C:\EAC Rips\03 - I Will Follow.wav
Pre-gap length 0:00:02.85
Peak level 94.8 %
Track quality 100.0 %
Test CRC A418A049
Copy CRC A418A049
Accurately ripped (confidence 2) [5EB26E14]
Copy OK
Track 4
Filename C:\EAC Rips\04 - Sunday Bloody Sunday.wav
Pre-gap length 0:00:02.37
Peak level 99.0 %
Track quality 99.9 %
Test CRC 5CB4B65D
Copy CRC 5CB4B65D
Accurately ripped (confidence 2) [AC9EB0E9]
Copy OK
Track 5
Filename C:\EAC Rips\05 - '40'.wav
Pre-gap length 0:00:02.50
Peak level 91.9 %
Track quality 99.9 %
Test CRC 255F8781
Copy CRC 255F8781
Accurately ripped (confidence 2) [E53D41C5]
Copy OK
Track 6
Filename C:\EAC Rips\06 - New Year's Day.wav
Pre-gap length 0:00:02.13
Peak level 89.3 %
Track quality 100.0 %
Test CRC 83BC632F
Copy CRC 83BC632F
Accurately ripped (confidence 2) [B6B28CAE]
Copy OK
Track 7
Filename C:\EAC Rips\07 - All I Want Is You.wav
Pre-gap length 0:00:01.90
Peak level 92.1 %
Track quality 100.0 %
Test CRC 415BE456
Copy CRC 415BE456
Accurately ripped (confidence 2) [9B8DD4B3]
Copy OK
Track 8
Filename C:\EAC Rips\08 - Desire.wav
Pre-gap length 0:00:02.45
Peak level 93.0 %
Track quality 99.9 %
Test CRC FD066115
Copy CRC FD066115
Accurately ripped (confidence 2) [9CA16030]
Copy OK
Track 9
Filename C:\EAC Rips\09 - I Still Haven't Found What I'm Looking For.wav
Pre-gap length 0:00:01.92
Peak level 87.4 %
Track quality 100.0 %
Test CRC E9751F57
Copy CRC E9751F57
Accurately ripped (confidence 2) [ABB04939]
Copy OK
Track 10
Filename C:\EAC Rips\10 - Bad.wav
Pre-gap length 0:00:02.02
Peak level 96.9 %
Track quality 99.9 %
Test CRC 468AA2EE
Copy CRC 468AA2EE
Accurately ripped (confidence 2) [D9B98023]
Copy OK
Track 11
Filename C:\EAC Rips\11 - Sweetest Thing.wav
Pre-gap length 0:00:02.25
Peak level 91.8 %
Track quality 99.9 %
Test CRC F3A60B2C
Copy CRC F3A60B2C
Accurately ripped (confidence 2) [4D960098]
Copy OK
Track 12
Filename C:\EAC Rips\12 - With or Without You.wav
Pre-gap length 0:00:02.65
Peak level 98.5 %
Track quality 100.0 %
Test CRC F45B822F
Copy CRC F45B822F
Accurately ripped (confidence 2) [DDFA64FA]
Copy OK
All tracks accurately ripped
No errors occurred
End of status report

X Lossless Decoder log 8 Red Hot Chili Peppers

X Lossless Decoder version 20090215 (100.1)
XLD extraction logfile from 2009-05-03 20:24:36 -0500
Red Hot Chili Peppers / String Quartet
Used drive : HL-DT-ST DVDRW GWA4080MA (revision AE39)
Use cdparanoia mode : YES (CDParanoia III 10.2 engine)
Disable audio cache : OK for the drive with cache less than 2750KB
Make use of C2 pointers : NO
Read offset correction : 667
Max retry count : 100
TOC of the extracted CD
Track | Start | Length | Start sector | End sector
---------------------------------------------------------
1 | 00:00:00 | 04:33:04 | 0 | 20478
2 | 04:33:04 | 03:22:32 | 20479 | 35660
3 | 07:55:36 | 04:17:28 | 35661 | 54963
4 | 12:12:64 | 03:24:21 | 54964 | 70284
5 | 15:37:10 | 03:36:73 | 70285 | 86557
6 | 19:14:08 | 03:27:07 | 86558 | 102089
7 | 22:41:15 | 03:36:48 | 102090 | 118337
8 | 26:17:63 | 04:50:70 | 118338 | 140157
9 | 31:08:58 | 02:56:63 | 140158 | 153420
10 | 34:05:46 | 04:45:00 | 153421 | 174795
11 | 38:50:46 | 04:30:63 | 174796 | 195108
12 | 43:21:34 | 03:30:68 | 195109 | 210926
Track 01
Filename : /Users/matthewyglesias/01 - Under The Bridge.flac
CRC32 hash (test run) : 2EF2AC64
CRC32 hash : 2EF2AC64
CRC32 hash (skip zero) : 6DADB9B6
AccurateRip signature : 1FCD71B4
->Accurately ripped! (confidence 2)
Statistics
Read error : 0
Skipped (treated as error) : 0
Edge jitter error (maybe fixed) : 0
Atom jitter error (maybe fixed) : 0
Drift error (maybe fixed) : 0
Dropped bytes error (maybe fixed) : 0
Duplicated bytes error (maybe fixed) : 0
Inconsistency in error sectors : 0
Track 02
Filename : /Users/matthewyglesias/02 - Californication.flac
CRC32 hash (test run) : 4F0D907E
CRC32 hash : 4F0D907E
CRC32 hash (skip zero) : 1ACBDAB7
AccurateRip signature : 3BE2A989
->Accurately ripped! (confidence 2)
Statistics
Read error : 0
Skipped (treated as error) : 0
Edge jitter error (maybe fixed) : 0
Atom jitter error (maybe fixed) : 0
Drift error (maybe fixed) : 0
Dropped bytes error (maybe fixed) : 0
Duplicated bytes error (maybe fixed) : 0
Inconsistency in error sectors : 0
Track 03
Filename : /Users/matthewyglesias/03 - Other Side.flac
CRC32 hash (test run) : 61FF5C8C
CRC32 hash : 61FF5C8C
CRC32 hash (skip zero) : 3F809BCA
AccurateRip signature : C7D3493D
->Accurately ripped! (confidence 2)
Statistics
Read error : 0
Skipped (treated as error) : 0
Edge jitter error (maybe fixed) : 0
Atom jitter error (maybe fixed) : 0
Drift error (maybe fixed) : 0
Dropped bytes error (maybe fixed) : 0
Duplicated bytes error (maybe fixed) : 0
Inconsistency in error sectors : 0
Track 04
Filename : /Users/matthewyglesias/04 - Fortune Faded.flac
CRC32 hash (test run) : F27EB893
CRC32 hash : F27EB893
CRC32 hash (skip zero) : 8DA7AAD8
AccurateRip signature : DBA86012
->Accurately ripped! (confidence 2)
Statistics
Read error : 0
Skipped (treated as error) : 0
Edge jitter error (maybe fixed) : 0
Atom jitter error (maybe fixed) : 0
Drift error (maybe fixed) : 0
Dropped bytes error (maybe fixed) : 0
Duplicated bytes error (maybe fixed) : 0
Inconsistency in error sectors : 0
Track 05
Filename : /Users/matthewyglesias/05 - Higher Ground.flac
CRC32 hash (test run) : C508E26B
CRC32 hash : C508E26B
CRC32 hash (skip zero) : C66DC167
AccurateRip signature : A827620D
->Accurately ripped! (confidence 2)
Statistics
Read error : 0
Skipped (treated as error) : 0
Edge jitter error (maybe fixed) : 0
Atom jitter error (maybe fixed) : 0
Drift error (maybe fixed) : 0
Dropped bytes error (maybe fixed) : 0
Duplicated bytes error (maybe fixed) : 0
Inconsistency in error sectors : 0
Track 06
Filename : /Users/matthewyglesias/06 - Breaking The Girl.flac
CRC32 hash (test run) : A1641727
CRC32 hash : A1641727
CRC32 hash (skip zero) : A9339F32
AccurateRip signature : E3E606BC
->Accurately ripped! (confidence 2)
Statistics
Read error : 0
Skipped (treated as error) : 0
Edge jitter error (maybe fixed) : 0
Atom jitter error (maybe fixed) : 0
Drift error (maybe fixed) : 0
Dropped bytes error (maybe fixed) : 0
Duplicated bytes error (maybe fixed) : 0
Inconsistency in error sectors : 0
Track 07
Filename : /Users/matthewyglesias/07 - Scar Tissue.flac
CRC32 hash (test run) : A05F9CD2
CRC32 hash : A05F9CD2
CRC32 hash (skip zero) : D2496B83
AccurateRip signature : 4CDD5F50
->Accurately ripped! (confidence 2)
Statistics
Read error : 0
Skipped (treated as error) : 0
Edge jitter error (maybe fixed) : 0
Atom jitter error (maybe fixed) : 0
Drift error (maybe fixed) : 0
Dropped bytes error (maybe fixed) : 0
Duplicated bytes error (maybe fixed) : 0
Inconsistency in error sectors : 0
Track 08
Filename : /Users/matthewyglesias/08 - Soul To Squeeze.flac
CRC32 hash (test run) : 0A6382B8
CRC32 hash : 0A6382B8
CRC32 hash (skip zero) : 66894B09
AccurateRip signature : B791EF48
->Accurately ripped! (confidence 2)
Statistics
Read error : 0
Skipped (treated as error) : 0
Edge jitter error (maybe fixed) : 0
Atom jitter error (maybe fixed) : 0
Drift error (maybe fixed) : 0
Dropped bytes error (maybe fixed) : 0
Duplicated bytes error (maybe fixed) : 0
Inconsistency in error sectors : 0
Track 09
Filename : /Users/matthewyglesias/09 - By The Way.flac
CRC32 hash (test run) : B4D05CE2
CRC32 hash : B4D05CE2
CRC32 hash (skip zero) : 2DF9FC77
AccurateRip signature : 27E917A5
->Accurately ripped! (confidence 2)
Statistics
Read error : 0
Skipped (treated as error) : 0
Edge jitter error (maybe fixed) : 0
Atom jitter error (maybe fixed) : 0
Drift error (maybe fixed) : 0
Dropped bytes error (maybe fixed) : 0
Duplicated bytes error (maybe fixed) : 0
Inconsistency in error sectors : 0
Track 10
Filename : /Users/matthewyglesias/10 - Aeroplane.flac
CRC32 hash (test run) : 11A4595F
CRC32 hash : 11A4595F
CRC32 hash (skip zero) : A4C5336F
AccurateRip signature : 2051AAAD
->Accurately ripped! (confidence 2)
Statistics
Read error : 0
Skipped (treated as error) : 0
Edge jitter error (maybe fixed) : 0
Atom jitter error (maybe fixed) : 0
Drift error (maybe fixed) : 0
Dropped bytes error (maybe fixed) : 0
Duplicated bytes error (maybe fixed) : 0
Inconsistency in error sectors : 0
Track 11
Filename : /Users/matthewyglesias/11 - Can't Stop.flac
CRC32 hash (test run) : A10BC7F0
CRC32 hash : A10BC7F0
CRC32 hash (skip zero) : 77186BD2
AccurateRip signature : 13198B60
->Accurately ripped! (confidence 2)
Statistics
Read error : 0
Skipped (treated as error) : 0
Edge jitter error (maybe fixed) : 0
Atom jitter error (maybe fixed) : 0
Drift error (maybe fixed) : 0
Dropped bytes error (maybe fixed) : 0
Duplicated bytes error (maybe fixed) : 0
Inconsistency in error sectors : 0
Track 12
Filename : /Users/matthewyglesias/12 - Suck My Kiss.flac
CRC32 hash (test run) : A818A0EE
CRC32 hash : A818A0EE
CRC32 hash (skip zero) : 79F0A97C
AccurateRip signature : AA760FC9
->Accurately ripped! (confidence 2)
Statistics
Read error : 0
Skipped (treated as error) : 0
Edge jitter error (maybe fixed) : 1
Atom jitter error (maybe fixed) : 1
Drift error (maybe fixed) : 0
Dropped bytes error (maybe fixed) : 1
Duplicated bytes error (maybe fixed) : 1
Inconsistency in error sectors : 0
No errors occurred
End of status report

Audiochecker log 8 Red Hot Chili Peppers

AUDIOCHECKER v2.0 beta (build 457) - by Dester - opdester@freemail.hu
~~~~~~~~~~~~~~~~~~~~~~~~~~~~~~~~~~
Started at: пятница, 15. 05. 2009. - 8:44.43
12 files found
01 -===- D:\Docs\sasha\Мои документы\Download\String Quartet Tribute\String Quartet RHCP\01 - Under The Bridge.flac
Extracted successfully
Conclusion: this track is CDDA with probability 100%
Tempfile successfully deleted.
02 -===- D:\Docs\sasha\Мои документы\Download\String Quartet Tribute\String Quartet RHCP\02 - Californication.flac
Extracted successfully
Conclusion: this track is CDDA with probability 99%
Tempfile successfully deleted.
03 -===- D:\Docs\sasha\Мои документы\Download\String Quartet Tribute\String Quartet RHCP\03 - Other Side.flac
Extracted successfully
Conclusion: this track is CDDA with probability 99%
Tempfile successfully deleted.
04 -===- D:\Docs\sasha\Мои документы\Download\String Quartet Tribute\String Quartet RHCP\04 - Fortune Faded.flac
Extracted successfully
Conclusion: this track is CDDA with probability 100%
Tempfile successfully deleted.
05 -===- D:\Docs\sasha\Мои документы\Download\String Quartet Tribute\String Quartet RHCP\05 - Higher Ground.flac
Extracted successfully
Conclusion: this track is CDDA with probability 100%
Tempfile successfully deleted.
06 -===- D:\Docs\sasha\Мои документы\Download\String Quartet Tribute\String Quartet RHCP\06 - Breaking The Girl.flac
Extracted successfully
Conclusion: this track is CDDA with probability 100%
Tempfile successfully deleted.
07 -===- D:\Docs\sasha\Мои документы\Download\String Quartet Tribute\String Quartet RHCP\07 - Scar Tissue.flac
Extracted successfully
Conclusion: this track is CDDA with probability 100%
Tempfile successfully deleted.
08 -===- D:\Docs\sasha\Мои документы\Download\String Quartet Tribute\String Quartet RHCP\08 - Soul To Squeeze.flac
Extracted successfully
Conclusion: this track is CDDA with probability 100%
Tempfile successfully deleted.
09 -===- D:\Docs\sasha\Мои документы\Download\String Quartet Tribute\String Quartet RHCP\09 - By The Way.flac
Extracted successfully
Conclusion: this track is CDDA with probability 100%
Tempfile successfully deleted.
10 -===- D:\Docs\sasha\Мои документы\Download\String Quartet Tribute\String Quartet RHCP\10 - Aeroplane.flac
Extracted successfully
Conclusion: this track is CDDA with probability 99%
Tempfile successfully deleted.
11 -===- D:\Docs\sasha\Мои документы\Download\String Quartet Tribute\String Quartet RHCP\11 - Can't Stop.flac
Extracted successfully
Conclusion: this track is CDDA with probability 100%
Tempfile successfully deleted.
12 -===- D:\Docs\sasha\Мои документы\Download\String Quartet Tribute\String Quartet RHCP\12 - Suck My Kiss.flac
Extracted successfully
Conclusion: this track is CDDA with probability 100%
Tempfile successfully deleted.
Finished at: пятница, 15. 05. 2009. - 8:52.24 (operation time: 0:07.40)

Отчет EAC 9 Tools' Aenima

Exact Audio Copy V0.99 prebeta 4 from 23. January 2008
EAC extraction logfile from 2. June 2008, 3:08
String Quartet / Tribute To Tool's Anima
Used drive : HL-DT-STDVD-RAM GSA-H55N Adapter: 0 ID: 1
Read mode : Secure
Utilize accurate stream : Yes
Defeat audio cache : No
Make use of C2 pointers : No
Read offset correction : 102
Overread into Lead-In and Lead-Out : No
Fill up missing offset samples with silence : Yes
Delete leading and trailing silent blocks : No
Null samples used in CRC calculations : Yes
Used interface : Installed external ASPI interface
Gap handling : Appended to previous track
Used output format : User Defined Encoder
Selected bitrate : 192 kBit/s
Quality : High
Add ID3 tag : No
Command line compressor : C:\Program Files\Exact Audio Copy\bin\flac.exe
Additional command line options : -8 -A tukey(0.25) -A gauss(0.1875) -b 4096 -V -T "artist=%a" -T "title=%t" -T "album=%g" -T "date=%y" -T "tracknumber=%n" -T "genre=%m" %s --sector-align
TOC of the extracted CD
Track | Start | Length | Start sector | End sector
---------------------------------------------------------
1 | 0:01.00 | 5:13.62 | 75 | 23611
2 | 5:14.62 | 8:28.21 | 23612 | 61732
3 | 13:43.08 | 6:27.55 | 61733 | 90812
4 | 20:10.63 | 0:45.59 | 90813 | 94246
5 | 20:56.47 | 6:15.28 | 94247 | 122399
6 | 27:12.00 | 1:53.55 | 122400 | 130929
7 | 29:05.55 | 4:31.22 | 130930 | 151276
8 | 33:37.02 | 1:07.57 | 151277 | 156358
9 | 34:44.59 | 5:29.51 | 156359 | 181084
10 | 40:14.35 | 2:22.67 | 181085 | 191801
11 | 42:37.27 | 7:47.11 | 191802 | 226837
12 | 50:24.38 | 1:26.03 | 226838 | 233290
13 | 51:50.41 | 6:19.00 | 233291 | 261715
14 | 58:09.41 | 4:02.31 | 261716 | 279896
15 | 62:11.72 | 12:50.15 | 279897 | 337661
Track 1
Filename E:\Ripped Music\String Quartet\Tribute To Tool's Anima\01 - String Quartet - Stinkfist.wav
Pre-gap length 0:00:03.00
Peak level 99.7 %
Track quality 100.0 %
Copy CRC 06320C44
Track not present in AccurateRip database
Copy OK
Track 2
Filename E:\Ripped Music\String Quartet\Tribute To Tool's Anima\02 - String Quartet - Eulogy.wav
Pre-gap length 0:00:00.65
Peak level 99.7 %
Track quality 100.0 %
Copy CRC 06785B46
Track not present in AccurateRip database
Copy OK
Track 3
Filename E:\Ripped Music\String Quartet\Tribute To Tool's Anima\03 - String Quartet - H..wav
Pre-gap length 0:00:00.32
Peak level 99.7 %
Track quality 100.0 %
Copy CRC 2F3CD7B1
Track not present in AccurateRip database
Copy OK
Track 4
Filename E:\Ripped Music\String Quartet\Tribute To Tool's Anima\04 - String Quartet - Useful Idiot.wav
Pre-gap length 0:00:00.85
Peak level 99.7 %
Track quality 100.0 %
Copy CRC D161D441
Track not present in AccurateRip database
Copy OK
Track 5
Filename E:\Ripped Music\String Quartet\Tribute To Tool's Anima\05 - String Quartet - Forty-Six & 2.wav
Peak level 99.7 %
Track quality 100.0 %
Copy CRC 2539328F
Track not present in AccurateRip database
Copy OK
Track 6
Filename E:\Ripped Music\String Quartet\Tribute To Tool's Anima\06 - String Quartet - Message to Harry Manback.wav
Pre-gap length 0:00:00.18
Peak level 90.5 %
Track quality 100.0 %
Copy CRC D0F5E7B2
Track not present in AccurateRip database
Copy OK
Track 7
Filename E:\Ripped Music\String Quartet\Tribute To Tool's Anima\07 - String Quartet - Hooker with a Penis.wav
Pre-gap length 0:00:01.01
Peak level 99.7 %
Track quality 99.9 %
Copy CRC 2C47660B
Track not present in AccurateRip database
Copy OK
Track 8
Filename E:\Ripped Music\String Quartet\Tribute To Tool's Anima\08 - String Quartet - Intermission.wav
Pre-gap length 0:00:01.17
Peak level 99.7 %
Track quality 99.8 %
Copy CRC DEDFDF46
Track not present in AccurateRip database
Copy OK
Track 9
Filename E:\Ripped Music\String Quartet\Tribute To Tool's Anima\09 - String Quartet - Jimmy.wav
Pre-gap length 0:00:01.01
Peak level 91.1 %
Track quality 100.0 %
Copy CRC EB909771
Track not present in AccurateRip database
Copy OK
Track 10
Filename E:\Ripped Music\String Quartet\Tribute To Tool's Anima\10 - String Quartet - Die Eier Von Satan.wav
Pre-gap length 0:00:01.36
Peak level 99.7 %
Track quality 100.0 %
Copy CRC DFB4705C
Track not present in AccurateRip database
Copy OK
Track 11
Filename E:\Ripped Music\String Quartet\Tribute To Tool's Anima\11 - String Quartet - Pushit.wav
Peak level 99.7 %
Track quality 100.0 %
Copy CRC C046EDD5
Track not present in AccurateRip database
Copy OK
Track 12
Filename E:\Ripped Music\String Quartet\Tribute To Tool's Anima\12 - String Quartet - Cesaro Summability.wav
Peak level 99.7 %
Track quality 100.0 %
Copy CRC 43DF3089
Track not present in AccurateRip database
Copy OK
Track 13
Filename E:\Ripped Music\String Quartet\Tribute To Tool's Anima\13 - String Quartet - Жnema.wav
Pre-gap length 0:00:00.74
Peak level 99.7 %
Track quality 100.0 %
Copy CRC E5C1736D
Track not present in AccurateRip database
Copy OK
Track 14
Filename E:\Ripped Music\String Quartet\Tribute To Tool's Anima\14 - String Quartet - (-) Ions.wav
Pre-gap length 0:00:00.65
Peak level 99.7 %
Track quality 99.9 %
Copy CRC 1BB8A354
Track not present in AccurateRip database
Copy OK
Track 15
Filename E:\Ripped Music\String Quartet\Tribute To Tool's Anima\15 - String Quartet - Third Eye.wav
Pre-gap length 0:00:00.92
Peak level 99.7 %
Track quality 100.0 %
Copy CRC 180F5697
Track not present in AccurateRip database
Copy OK
None of the tracks are present in the AccurateRip database
No errors occurred
End of status report

Отчет EAC 10 Incubus

Exact Audio Copy V0.99 prebeta 5 from 4. May 2009
EAC extraction logfile from 14. May 2009, 18:00
The String Quartet Tribute / The String Quartet Tribute To Incubus
Used drive : TSSTcorpDVD+-RW TS-L632D Adapter: 1 ID: 0
Read mode : Secure
Utilize accurate stream : Yes
Defeat audio cache : Yes
Make use of C2 pointers : No
Read offset correction : 6
Overread into Lead-In and Lead-Out : No
Fill up missing offset samples with silence : Yes
Delete leading and trailing silent blocks : No
Null samples used in CRC calculations : Yes
Used interface : Native Win32 interface for Win NT & 2000
Gap handling : Appended to previous track
Used output format : User Defined Encoder
Selected bitrate : 320 kBit/s
Quality : High
Add ID3 tag : No
Command line compressor : C:\Program Files\Exact Audio Copy\Flac\flac.exe
Additional command line options : -V -8 -T "artist=%a" -T "title=%t" -T "album=%g" -T "date=%y" -T "tracknumber=%n" -T "genre=%m" %s
TOC of the extracted CD
Track | Start | Length | Start sector | End sector
---------------------------------------------------------
1 | 0:00.00 | 3:16.67 | 0 | 14766
2 | 3:16.67 | 3:46.27 | 14767 | 31743
3 | 7:03.19 | 3:39.12 | 31744 | 48180
4 | 10:42.31 | 3:54.56 | 48181 | 65786
5 | 14:37.12 | 2:30.59 | 65787 | 77095
6 | 17:07.71 | 3:37.20 | 77096 | 93390
7 | 20:45.16 | 3:10.57 | 93391 | 107697
8 | 23:55.73 | 2:58.16 | 107698 | 121063
9 | 26:54.14 | 5:00.39 | 121064 | 143602
10 | 31:54.53 | 4:02.62 | 143603 | 161814
Track 1
Filename 01 - Stellar.wav
Pre-gap length 0:00:02.00
Peak level 98.2 %
Track quality 99.9 %
Test CRC 4147BEF5
Copy CRC 4147BEF5
Accurately ripped (confidence 3) [7DFF8C98]
Copy OK
Track 2
Filename 02 - Drive.wav
Peak level 99.8 %
Track quality 100.0 %
Test CRC B0ABD47C
Copy CRC B0ABD47C
Accurately ripped (confidence 3) [E13FD667]
Copy OK
Track 3
Filename 03 - Pardon Me.wav
Peak level 99.8 %
Track quality 99.9 %
Test CRC 89D3290D
Copy CRC 89D3290D
Accurately ripped (confidence 3) [D82CA1E9]
Copy OK
Track 4
Filename 04 - 11 AM.wav
Peak level 98.2 %
Track quality 99.9 %
Test CRC 314AAED3
Copy CRC 314AAED3
Accurately ripped (confidence 3) [2B624F84]
Copy OK
Track 5
Filename 05 - I Miss You.wav
Peak level 98.5 %
Track quality 100.0 %
Test CRC B9D0621B
Copy CRC B9D0621B
Accurately ripped (confidence 3) [73DB6658]
Copy OK
Track 6
Filename 06 - The Warmth.wav
Peak level 99.8 %
Track quality 100.0 %
Test CRC 818164C8
Copy CRC 818164C8
Accurately ripped (confidence 3) [FE500049]
Copy OK
Track 7
Filename 07 - Make Yourself.wav
Peak level 99.8 %
Track quality 100.0 %
Test CRC 397412BB
Copy CRC 397412BB
Accurately ripped (confidence 3) [E42C6263]
Copy OK
Track 8
Filename 08 - Wish You Were Here.wav
Peak level 99.8 %
Track quality 100.0 %
Test CRC 0DD5072B
Copy CRC 0DD5072B
Accurately ripped (confidence 3) [A0C0C512]
Copy OK
Track 9
Filename 09 - Mexico.wav
Peak level 98.6 %
Track quality 99.9 %
Test CRC 9B33BA86
Copy CRC 9B33BA86
Accurately ripped (confidence 3) [9FDB61D2]
Copy OK
Track 10
Filename 10 - Insomnia.wav
Peak level 98.4 %
Track quality 100.0 %
Test CRC 97B2DBB4
Copy CRC 97B2DBB4
Accurately ripped (confidence 3) [9E9975C7]
Copy OK
All tracks accurately ripped
No errors occurred
End of status report

Отчет EAC 11 Opeth

EAC extraction logfile from 15. June 2008, 2:01 for CD
String Tribute Players / Opeth String Tribute
Used drive : HL-DT-STCDRW/DVD GCC4244 Adapter: 1 ID: 0
Read mode : Secure with NO C2, accurate stream, disable cache
Read offset correction : 102
Overread into Lead-In and Lead-Out : No
Used output format : C:\Program Files\Exact Audio Copy\flac-1.1.4-win\bin\flac.exe (User Defined Encoder)
128 kBit/s
Additional command line options : -8 -A tukey(0.25) -A gauss(0.1875) -b 4096 -V -T "artist=%a" -T "title=%t" -T "album=%g" -T "date=%y" -T "tracknumber=%n" -T "genre=%m" %s --sector-align
Other options :
Fill up missing offset samples with silence : Yes
Delete leading and trailing silent blocks : No
Installed external ASPI interface
Track 1
Filename C:\Documents and Settings\Ami\My Documents\Opeth String Tribute\01 - String Tribute Players - Porcelain Heart.wav
Pre-gap length 0:00:02.00
Peak level 98.8 %
Track quality 100.0 %
Test CRC 8A290FAE
Copy CRC 8A290FAE
Copy OK
Track 2
Filename C:\Documents and Settings\Ami\My Documents\Opeth String Tribute\02 - String Tribute Players - Windowpane.wav
Pre-gap length 0:00:02.00
Peak level 98.8 %
Track quality 100.0 %
Test CRC B3FBF803
Copy CRC B3FBF803
Copy OK
Track 3
Filename C:\Documents and Settings\Ami\My Documents\Opeth String Tribute\03 - String Tribute Players - Bleak.wav
Pre-gap length 0:00:02.00
Peak level 98.8 %
Track quality 99.9 %
Test CRC 78F70741
Copy CRC 78F70741
Copy OK
Track 4
Filename C:\Documents and Settings\Ami\My Documents\Opeth String Tribute\04 - String Tribute Players - Harvest.wav
Pre-gap length 0:00:02.00
Peak level 98.8 %
Track quality 100.0 %
Test CRC 866C5A1D
Copy CRC 866C5A1D
Copy OK
Track 5
Filename C:\Documents and Settings\Ami\My Documents\Opeth String Tribute\05 - String Tribute Players - Death Whispered a Lullaby.wav
Pre-gap length 0:00:02.00
Peak level 98.8 %
Track quality 100.0 %
Test CRC B388D4B3
Copy CRC B388D4B3
Copy OK
Track 6
Filename C:\Documents and Settings\Ami\My Documents\Opeth String Tribute\06 - String Tribute Players - In My Time of Need.wav
Pre-gap length 0:00:02.00
Peak level 98.8 %
Track quality 100.0 %
Test CRC 5D164BF7
Copy CRC 5D164BF7
Copy OK
Track 7
Filename C:\Documents and Settings\Ami\My Documents\Opeth String Tribute\07 - String Tribute Players - Dirge for November.wav
Pre-gap length 0:00:02.00
Peak level 98.8 %
Track quality 100.0 %
Test CRC D7DE5DF1
Copy CRC D7DE5DF1
Copy OK
Track 8
Filename C:\Documents and Settings\Ami\My Documents\Opeth String Tribute\08 - String Tribute Players - Soldier of Fortune.wav
Pre-gap length 0:00:02.00
Peak level 98.8 %
Track quality 100.0 %
Test CRC F4ECB6D7
Copy CRC F4ECB6D7
Copy OK
Track 9
Filename C:\Documents and Settings\Ami\My Documents\Opeth String Tribute\09 - String Tribute Players - The Funeral Portrait.wav
Pre-gap length 0:00:02.00
Peak level 98.8 %
Track quality 100.0 %
Test CRC CA01AC01
Copy CRC CA01AC01
Copy OK
Track 10
Filename C:\Documents and Settings\Ami\My Documents\Opeth String Tribute\10 - String Tribute Players - Hope Leaves.wav
Pre-gap length 0:00:02.00
Peak level 98.8 %
Track quality 99.9 %
Test CRC AFB38497
Copy CRC AFB38497
Copy OK
No errors occured
End of status report



Показать сообщения:    

Текущее время: 04-Дек 21:25

Часовой пояс: UTC + 3


Вы не можете начинать темы
Вы не можете отвечать на сообщения
Вы не можете редактировать свои сообщения
Вы не можете удалять свои сообщения
Вы не можете голосовать в опросах
Вы не можете прикреплять файлы к сообщениям
Вы не можете скачивать файлы