(Vocal / Neoclassical) Eri Sugai - Stella Mirus II - 2006, APE (image+.cue), lossless


 

[Цитировать]

Eri Sugai - Stella Mirus II
Жанр: Vocal / Neoclassical
Год выпуска диска: 2006
Производитель диска: Pacific Garden (Japan)
Аудио кодек: APE
Тип рипа: image+.cue
Битрейт аудио: lossless
Продолжительность: 56:59
Трэклист:
1. Komorebi [Sunshine Filtering Through Foliage] / E.Sugai
2. Adagio / T.Albinoni
3. Cuckoo / E.Sugai
4. Menuett BWV Anh.114~BWV115 / J.S.Bach
5. Pray /E.Sugai
6. Die Moldau / B.Smetana
7. Tukiyo no shizuku [A Drop of a Moonlit Night] / E.Sugai
8. Kanon / Johann Pachelbel
9. Toy's Night / E.Sugai
10. Hoshidokei [A Star Clock] / E.Sugai
11. Pure / E.Sugai
CHCB-30015
All songs arranged by Eri Sugai
All vocals, all backing vocals, piano, synthesizer programming by Eri Sugai
Guitar - Itaru Watanabe
Cello - Masami Horisawa

EAC log

Exact Audio Copy V0.99 prebeta 3 from 28. July 2007
EAC extraction logfile from 12. January 2008, 0:31
Eri Sugai / Stella Mirus II
Used drive : HL-DT-STRW/DVD GCC-4241N Adapter: 1 ID: 0
Read mode : SecureUtilize accurate stream : YesDefeat audio cache : YesMake use of C2 pointers : No
Read offset correction : 102Overread into Lead-In and Lead-Out : NoFill up missing offset samples with silence : YesDelete leading and trailing silent blocks : NoNull samples used in CRC calculations : YesUsed interface : Installed external ASPI interface
Used output format : User Defined EncoderSelected bitrate : 768 kBit/sQuality : HighAdd ID3 tag : NoCommand line compressor : C:\Program Files\Exact Audio Copy\wavpack.exeAdditional command line options : -hmxd -w "GENRE=%m" -w "DATE=%y" -w "COMMENT=Released by a-one" %s %d
TOC of the extracted CD
Track | Start | Length | Start sector | End sector --------------------------------------------------------- 1 | 0:00.00 | 6:04.43 | 0 | 27342 2 | 6:04.43 | 6:30.45 | 27343 | 56637 3 | 12:35.13 | 3:35.20 | 56638 | 72782 4 | 16:10.33 | 6:13.05 | 72783 | 100762 5 | 22:23.38 | 4:25.15 | 100763 | 120652 6 | 26:48.53 | 6:02.30 | 120653 | 147832 7 | 32:51.08 | 5:12.00 | 147833 | 171232 8 | 38:03.08 | 5:29.62 | 171233 | 195969 9 | 43:32.70 | 4:03.30 | 195970 | 214224 10 | 47:36.25 | 5:03.38 | 214225 | 236987 11 | 52:39.63 | 4:19.30 | 236988 | 256442
Range status and errors
Selected range
Filename C:\Rips\Eri Sugai - Stella Mirus II.wav
Peak level 95.5 % Range quality 99.9 % Copy CRC D67836AB Copy OK
No errors occurred
End of status report
Другие альбомы Eri Sugai :
"Stella Mirus ~ Air" (Pacific Garden, 2000, image+.cue)



Показать сообщения:    

Текущее время: 06-Дек 13:15

Часовой пояс: UTC + 3


Вы не можете начинать темы
Вы не можете отвечать на сообщения
Вы не можете редактировать свои сообщения
Вы не можете удалять свои сообщения
Вы не можете голосовать в опросах
Вы не можете прикреплять файлы к сообщениям
Вы не можете скачивать файлы