(Vocal / Neoclassical) Eri Sugai - Stella Mirus - Air - 2000, APE (image+.cue), lossless


 

[Цитировать]

Eri Sugai - Stella Mirus - Air
Жанр: Vocal / Neoclassical
Год выпуска диска: 2000
Производитель диска: Pacific Garden (Japan)
Аудио кодек: APE
Тип рипа: image+.cue
Битрейт аудио: lossless
Продолжительность: 45:33
Трэклист:
1. Air (For the G String) / J.S.Bach
2. Gymnopedies #1 / E.Satie
3. In Your Arms / E.Sugai
4. Sonata Fur Klavier #14 / L.Beethoven
5. Aquamarin / E.Sugai
6. Stella / E.Sugai
7. Siciliana / Per Leas Et Melisande Op.80 / G.Faure
8. Tableaux Dune Exposition / M.P.Mussorgsky
9. Silent Love / E.Sugai
CHCB 30003
Produced by Kazumasa Yoshioka and Eri Sugai

Отчёт EAC

Exact Audio Copy V0.99 prebeta 5 from 4. May 2009
Отчёт EAC об извлечении, выполненном 30. июня 2009, 23:28
Stella Mirus / Air
Дисковод: PIONEER DVD-RW DVR-112 Adapter: 0 ID: 0
Режим чтения : ДостоверностьИспользование точного потока : ДаОтключение кэша аудио : ДаИспользование указателей C2 : Нет
Коррекция смещения при чтении : 48Способность читать области Lead-in и Lead-out : НетЗаполнение пропущенных сэмплов тишиной : ДаУдаление блоков с тишиной в начале и конце : НетПри вычислениях CRC использовались нулевые сэмплы : ДаИнтерфейс : Установленный внешний ASPI-интерфейс
Выходной формат : Внутренние WAV-операцииФормат сэмплов : 44.100 Гц; 16 бит; стерео
TOC извлечённого CD
Трек | Старт | Длительность | Начальный сектор | Конечный сектор --------------------------------------------------------------------- 1 | 0:00.00 | 5:42.55 | 0 | 25704 2 | 5:42.55 | 3:51.43 | 25705 | 43072 3 | 9:34.23 | 2:09.70 | 43073 | 52817 4 | 11:44.18 | 5:36.07 | 52818 | 78024 5 | 17:20.25 | 4:37.58 | 78025 | 98857 6 | 21:58.08 | 3:57.50 | 98858 | 116682 7 | 25:55.58 | 7:48.70 | 116683 | 151852 8 | 33:44.53 | 2:54.62 | 151853 | 164964 9 | 36:39.40 | 8:54.13 | 164965 | 205027
Характеристики диапазона извлечения и сообщения об ошибках
Выбранный диапазон
Имя файла D:\Stella Mirus - Air.wav
Пиковый уровень 98.7 % Качество диапазона 100.0 % CRC копии 90C01DDE Копирование... OK
Ошибок не произошло
AccurateRip: сводка
Трек 1 точное извлечение (доверие 1) [12022764]Трек 2 точное извлечение (доверие 1) [97BC8825]Трек 3 точное извлечение (доверие 1) [ED6B9E95]Трек 4 точное извлечение (доверие 1) [E8471660]Трек 5 точное извлечение (доверие 1) [6D79980F]Трек 6 точное извлечение (доверие 1) [25670E3B]Трек 7 точное извлечение (доверие 1) [AB8F6F86]Трек 8 точное извлечение (доверие 1) [BC237A7F]Трек 9 точное извлечение (доверие 1) [E37035C8]
Все треки извлечены точно
Конец отчёта
Другие альбомы Eri Sugai :
"Stella Mirus II" (Pacific Garden, 2006 г., image+.cue)



Показать сообщения:    

Текущее время: 10-Дек 15:42

Часовой пояс: UTC + 3


Вы не можете начинать темы
Вы не можете отвечать на сообщения
Вы не можете редактировать свои сообщения
Вы не можете удалять свои сообщения
Вы не можете голосовать в опросах
Вы не можете прикреплять файлы к сообщениям
Вы не можете скачивать файлы