(Классическая гитара) А.Ольшанский переложения Beatles и др. - 2004, FLAC (tracks+.cue), lossless


 

[Цитировать]

А.Ольшанский исполняет собственные переложения Битлз, Лед Зеппелин, Гершвина и авторские композиции
Жанр: Классическая гитара
Год выпуска диска: 2004
Производитель диска: Австрия
Аудио кодек: FLAC
Тип рипа: tracks+.cue
Битрейт аудио: lossless
Продолжительность: 50:02
Трэклист:
1. Битлз - Michelle ... 02:20
2. Битлз - With A Little Help From My Friends... 02:46
3. Битлз - Here There And Everywhere... 02:10
4. Битлз - Martha My Dear... 02:15
5. Битлз - Cry Baby Cry... 01:53
6. Битлз - When I`m Sixty Four... 02:19
7. Битлз - Because... 04:05
8. Битлз - Here Comes The Sun... 02:08
9. Битлз - Golden Sloumberth... 04:30
10. Битлз - Eleanor Rigby... 02:31
11. Битлз - And I Love Her... 02:55
12. Битлз - Get Back... 01:59
13 Лед Зеппелин - Stairway To Heaven... 05:25
14. Гершвин - Summertime... 04:19
15. Ольшанский - Сценарий... 03:17
16. Ольшанский - Вечер на Беверли-Хиллз... 02:49
17. Ольшанский - Лахойя... 01:51
Доп. информация
ОЛЬШАНСКИЙ Анатолий (родился в 1956 г.), гитарист и композитор (классическая гитара, гран-гитара).
В репертуаре авторские композиции и аранжировки, переложения сочинений известных композиторов (Баха, Шопена, Гершвина, Чайковского) и др. Анатолию Ольшанскому (в соавторстве с Владимиром Устиновым) принадлежит изобретение мирового значения в области музыкальных инструментов - гитары, получившей название ГРАН (Гитара Российская Акустическая Новая). Отличительная особенность ГРАН-гитары — шесть двойных металлических и нейлоновых струн: с виду гран-гитара похожа на обычную мастеровую "классику", но кроме 6 синтетических струн, она имеет еще и 6 металлических, расположенных чуть ниже основных. Для игры на этой гитаре применяется специальная техника. Благодаря своей особенности звучание этого музыкального инструмента одновременно и "классическое", и джазовое. Эта гитара уже получила широкое признание и распространение по всему миру, заказ на нее сделал даже Пол Маккартни. Сейчас А. Ольшанский живет в Вене.

Отчет EAC

Exact Audio Copy V0.99 prebeta 4 from 23. January 2008
EAC extraction logfile from 4. June 2009, 0:07
Анатолий Ольшанский / Классическая и ГРАН гитары
Used drive : TSSTcorpCDDVDW SH-S202H Adapter: 0 ID: 0
Read mode : Secure
Utilize accurate stream : Yes
Defeat audio cache : Yes
Make use of C2 pointers : No
Read offset correction : 6
Overread into Lead-In and Lead-Out : No
Fill up missing offset samples with silence : Yes
Delete leading and trailing silent blocks : No
Null samples used in CRC calculations : Yes
Used interface : Installed external ASPI interface
Gap handling : Appended to previous track
Used output format : User Defined Encoder
Selected bitrate : 768 kBit/s
Quality : High
Add ID3 tag : No
Command line compressor : C:\Program Files\Exact Audio Copy\FLAC\FLAC.EXE
Additional command line options : -8 -V -T "ARTIST=%a" -T "TITLE=%t" -T "ALBUM=%g" -T "DATE=%y" -T "TRACKNUMBER=%n" -T "GENRE=%m" -T "COMMENT=%e" %s -o %d
TOC of the extracted CD
Track | Start | Length | Start sector | End sector
---------------------------------------------------------
1 | 0:00.00 | 2:22.00 | 0 | 10649
2 | 2:22.00 | 2:48.01 | 10650 | 23250
3 | 5:10.01 | 2:12.00 | 23251 | 33150
4 | 7:22.01 | 2:17.01 | 33151 | 43426
5 | 9:39.02 | 1:55.00 | 43427 | 52051
6 | 11:34.02 | 2:21.00 | 52052 | 62626
7 | 13:55.02 | 4:06.41 | 62627 | 81117
8 | 18:01.43 | 2:09.35 | 81118 | 90827
9 | 20:11.03 | 4:32.01 | 90828 | 111228
10 | 24:43.04 | 2:33.01 | 111229 | 122704
11 | 27:16.05 | 2:57.11 | 122705 | 135990
12 | 30:13.16 | 2:01.06 | 135991 | 145071
13 | 32:14.22 | 5:26.49 | 145072 | 169570
14 | 37:40.71 | 4:21.00 | 169571 | 189145
15 | 42:01.71 | 3:19.01 | 189146 | 204071
16 | 45:20.72 | 2:50.55 | 204072 | 216876
17 | 48:11.52 | 1:51.00 | 216877 | 225201
Track 1
Filename D:\для торрента\Музыка\Ольшанский\01. Анатолий Ольшанский – Track01.wav
Pre-gap length 0:00:02.00
Peak level 97.7 %
Track quality 100.0 %
Test CRC 436F4548
Copy CRC 436F4548
Copy OK
Track 2
Filename D:\для торрента\Музыка\Ольшанский\02. Анатолий Ольшанский – Track02.wav
Pre-gap length 0:00:02.00
Peak level 97.7 %
Track quality 99.9 %
Test CRC AEEDA9DC
Copy CRC AEEDA9DC
Copy OK
Track 3
Filename D:\для торрента\Музыка\Ольшанский\03. Анатолий Ольшанский – Track03.wav
Pre-gap length 0:00:01.93
Peak level 97.7 %
Track quality 100.0 %
Test CRC 0E63A965
Copy CRC 0E63A965
Copy OK
Track 4
Filename D:\для торрента\Музыка\Ольшанский\04. Анатолий Ольшанский – Track04.wav
Pre-gap length 0:00:01.96
Peak level 97.7 %
Track quality 100.0 %
Test CRC FA58193F
Copy CRC FA58193F
Copy OK
Track 5
Filename D:\для торрента\Музыка\Ольшанский\05. Анатолий Ольшанский – Track05.wav
Pre-gap length 0:00:01.88
Peak level 100.0 %
Track quality 100.0 %
Test CRC A6C12F1D
Copy CRC A6C12F1D
Copy OK
Track 6
Filename D:\для торрента\Музыка\Ольшанский\06. Анатолий Ольшанский – Track06.wav
Pre-gap length 0:00:01.92
Peak level 97.7 %
Track quality 100.0 %
Test CRC 7DE5B82F
Copy CRC 7DE5B82F
Copy OK
Track 7
Filename D:\для торрента\Музыка\Ольшанский\07. Анатолий Ольшанский – Track07.wav
Pre-gap length 0:00:01.98
Peak level 97.7 %
Track quality 100.0 %
Test CRC 5619E859
Copy CRC 5619E859
Copy OK
Track 8
Filename D:\для торрента\Музыка\Ольшанский\08. Анатолий Ольшанский – Track08.wav
Pre-gap length 0:00:01.37
Peak level 97.7 %
Track quality 100.0 %
Test CRC 1A748E8F
Copy CRC 1A748E8F
Copy OK
Track 9
Filename D:\для торрента\Музыка\Ольшанский\09. Анатолий Ольшанский – Track09.wav
Pre-gap length 0:00:01.89
Peak level 97.7 %
Track quality 100.0 %
Test CRC 57712768
Copy CRC 57712768
Copy OK
Track 10
Filename D:\для торрента\Музыка\Ольшанский\10. Анатолий Ольшанский – Track10.wav
Pre-gap length 0:00:01.89
Peak level 97.7 %
Track quality 100.0 %
Test CRC 75E0E0B3
Copy CRC 75E0E0B3
Copy OK
Track 11
Filename D:\для торрента\Музыка\Ольшанский\11. Анатолий Ольшанский – Track11.wav
Pre-gap length 0:00:01.81
Peak level 83.5 %
Track quality 100.0 %
Test CRC 1FF94DD8
Copy CRC 1FF94DD8
Copy OK
Track 12
Filename D:\для торрента\Музыка\Ольшанский\12. Анатолий Ольшанский – Track12.wav
Pre-gap length 0:00:01.88
Peak level 97.7 %
Track quality 100.0 %
Test CRC FC8A6038
Copy CRC FC8A6038
Copy OK
Track 13
Filename D:\для торрента\Музыка\Ольшанский\13. Анатолий Ольшанский – Track13.wav
Pre-gap length 0:00:01.94
Peak level 97.7 %
Track quality 100.0 %
Test CRC 1A94FC8C
Copy CRC 1A94FC8C
Copy OK
Track 14
Filename D:\для торрента\Музыка\Ольшанский\14. Анатолий Ольшанский – Track14.wav
Pre-gap length 0:00:01.94
Peak level 97.7 %
Track quality 99.9 %
Test CRC 251EF01C
Copy CRC 251EF01C
Copy OK
Track 15
Filename D:\для торрента\Музыка\Ольшанский\15. Анатолий Ольшанский – Track15.wav
Pre-gap length 0:00:01.97
Peak level 97.7 %
Track quality 100.0 %
Test CRC B358B390
Copy CRC B358B390
Copy OK
Track 16
Filename D:\для торрента\Музыка\Ольшанский\16. Анатолий Ольшанский – Track16.wav
Pre-gap length 0:00:01.82
Peak level 97.7 %
Track quality 100.0 %
Test CRC 240AC0C8
Copy CRC 240AC0C8
Copy OK
Track 17
Filename D:\для торрента\Музыка\Ольшанский\17. Анатолий Ольшанский – Track17.wav
Pre-gap length 0:00:01.84
Peak level 97.7 %
Track quality 100.0 %
Test CRC 4BB73AB2
Copy CRC 4BB73AB2
Copy OK
No errors occurred
End of status report



Показать сообщения:    

Текущее время: 10-Дек 02:11

Часовой пояс: UTC + 3


Вы не можете начинать темы
Вы не можете отвечать на сообщения
Вы не можете редактировать свои сообщения
Вы не можете удалять свои сообщения
Вы не можете голосовать в опросах
Вы не можете прикреплять файлы к сообщениям
Вы не можете скачивать файлы