(NewAge / Meditative / opera) Emma Shapplin - Discovering yourself - 1999, APE (image+.cue), lossless


 

[Цитировать]

Emma Shapplin - Discovering yourself
Жанр: NewAge / Meditative / opera
Год выпуска диска: 1999
Аудио кодек: APE
Тип рипа: image+.cue
Битрейт аудио: lossless
Продолжительность: 65:29
Трэклист:
01.Discovering Yourself [03:46]
02.Dolce Veneno [04:12]
03.Fera Ventura [04:32]
04.De L'abime Au Rivage [01:10]
05.Spente Le Stelle [04:27]
06.Vedi, Maria... [05:05]
07.Carmine Meo [04:17]
08.Cour Senza Sangue [04:03]
09.Favola Breve [04:31]
10.Reprendo Mai Piu [03:44]
11.Une Ombre Dans Le Ciel [00:59]
12.Lucifer, Aquel Dia [03:37]
13.Ira Di Dio [04:32]
14.Miserere, Venere... [03:54]
15.A La Frontiere Du Reve [01:19]
16.Spente Le Stelle (Live) [05:33]
17.Cuerpo Sin Alma (Remix) [05:48]
Доп. информация:

Отчёт EAC

Exact Audio Copy V0.99 prebeta 4 from 23. January 2008
Отчёт EAC об извлечении, выполненном 13. мая 2009, 20:00
Emma Shaplin / Discovering yourself
Дисковод: TSSTcorpCDDVDW SH-S203B Adapter: 3 ID: 0
Режим чтения : Достоверность
Использование точного потока : Да
Отключение кэша аудио : Да
Использование указателей C2 : Нет
Коррекция смещения при чтении : 6
Способность читать области Lead-in и Lead-out : Нет
Заполнение пропущенных сэмплов тишиной : Да
Удаление блоков с тишиной в начале и конце : Нет
При вычислениях CRC использовались нулевые сэмплы : Да
Интерфейс : Встроенный Win32-интерфейс для Win NT/2000
Выходной формат : Внутренние WAV-операции
Формат сэмплов : 44.100 Гц; 16 бит; стерео
TOC извлечённого CD
Трек | Старт | Длительность | Начальный сектор | Конечный сектор
---------------------------------------------------------------------
1 | 0:00.00 | 3:46.71 | 0 | 17020
2 | 3:46.71 | 4:11.57 | 17021 | 35902
3 | 7:58.53 | 4:31.52 | 35903 | 56279
4 | 12:30.30 | 1:10.03 | 56280 | 61532
5 | 13:40.33 | 4:27.20 | 61533 | 81577
6 | 18:07.53 | 5:04.35 | 81578 | 104412
7 | 23:12.13 | 4:16.65 | 104413 | 123677
8 | 27:29.03 | 4:03.55 | 123678 | 141957
9 | 31:32.58 | 4:30.64 | 141958 | 162271
10 | 36:03.47 | 3:44.13 | 162272 | 179084
11 | 39:47.60 | 0:58.44 | 179085 | 183478
12 | 40:46.29 | 3:37.22 | 183479 | 199775
13 | 44:23.51 | 4:31.39 | 199776 | 220139
14 | 48:55.15 | 3:54.04 | 220140 | 237693
15 | 52:49.19 | 1:18.72 | 237694 | 243615
16 | 54:08.16 | 5:33.12 | 243616 | 268602
17 | 59:41.28 | 5:47.57 | 268603 | 294684
Характеристики диапазона извлечения и сообщения об ошибках
Выбранный диапазон
Имя файла D:\Muzik\LOSSLESS\Classic\Emma Shaplin\1999 - Discovering yourself\Emma Shaplin - Discovering yourself.wav
Пиковый уровень 98.6 %
Качество диапазона 100.0 %
CRC копии E74C2DBD
Копирование... OK
Ошибок не произошло
Конец отчёта

Отчёт AUDIOCHECKER

AUDIOCHECKER v2.0 beta (build 457) - by Dester - opdester@freemail.hu
~~~~~~~~~~~~~~~~~~~~~~~~~~~~~~~~~~
Начато: среда, 13. 05. 2009. - 20:04.05
Найдено файлов: 17
01 -===- трек 1 в приводе TSSTcorpCDDVDW SH-S203B
Трек успешно извлечён
Заключение: этот трек - CDDA с вероятностью 99%
Временный файл удалён.
02 -===- трек 2 в приводе TSSTcorpCDDVDW SH-S203B
Трек успешно извлечён
Заключение: этот трек - CDDA с вероятностью 100%
Временный файл удалён.
03 -===- трек 3 в приводе TSSTcorpCDDVDW SH-S203B
Трек успешно извлечён
Заключение: этот трек - CDDA с вероятностью 100%
Временный файл удалён.
04 -===- трек 4 в приводе TSSTcorpCDDVDW SH-S203B
Трек успешно извлечён
Заключение: этот трек - CDDA с вероятностью 99%
Временный файл удалён.
05 -===- трек 5 в приводе TSSTcorpCDDVDW SH-S203B
Трек успешно извлечён
Заключение: этот трек - CDDA с вероятностью 100%
Временный файл удалён.
06 -===- трек 6 в приводе TSSTcorpCDDVDW SH-S203B
Трек успешно извлечён
Заключение: этот трек - CDDA с вероятностью 100%
Временный файл удалён.
07 -===- трек 7 в приводе TSSTcorpCDDVDW SH-S203B
Трек успешно извлечён
Заключение: этот трек - CDDA с вероятностью 100%
Временный файл удалён.
08 -===- трек 8 в приводе TSSTcorpCDDVDW SH-S203B
Трек успешно извлечён
Заключение: этот трек - CDDA с вероятностью 100%
Временный файл удалён.
09 -===- трек 9 в приводе TSSTcorpCDDVDW SH-S203B
Трек успешно извлечён
Заключение: этот трек - CDDA с вероятностью 100%
Временный файл удалён.
10 -===- трек 10 в приводе TSSTcorpCDDVDW SH-S203B
Трек успешно извлечён
Заключение: этот трек - CDDA с вероятностью 100%
Временный файл удалён.
11 -===- трек 11 в приводе TSSTcorpCDDVDW SH-S203B
Трек успешно извлечён
Заключение: этот трек - CDDA с вероятностью 100%
Временный файл удалён.
12 -===- трек 12 в приводе TSSTcorpCDDVDW SH-S203B
Трек успешно извлечён
Заключение: этот трек - CDDA с вероятностью 100%
Временный файл удалён.
13 -===- трек 13 в приводе TSSTcorpCDDVDW SH-S203B
Трек успешно извлечён
Заключение: этот трек - CDDA с вероятностью 100%
Временный файл удалён.
14 -===- трек 14 в приводе TSSTcorpCDDVDW SH-S203B
Трек успешно извлечён
Заключение: этот трек - CDDA с вероятностью 100%
Временный файл удалён.
15 -===- трек 15 в приводе TSSTcorpCDDVDW SH-S203B
Трек успешно извлечён
Заключение: этот трек - CDDA с вероятностью 100%
Временный файл удалён.
16 -===- трек 16 в приводе TSSTcorpCDDVDW SH-S203B
Трек успешно извлечён
Заключение: этот трек - CDDA с вероятностью 100%
Временный файл удалён.
17 -===- трек 17 в приводе TSSTcorpCDDVDW SH-S203B
Трек успешно извлечён
Заключение: этот трек - CDDA с вероятностью 100%
Временный файл удалён.
Завершено: среда, 13. 05. 2009. - 20:24.32 (Время операции: 0:20.26)



Показать сообщения:    

Текущее время: 21-Янв 11:35

Часовой пояс: UTC + 3


Вы не можете начинать темы
Вы не можете отвечать на сообщения
Вы не можете редактировать свои сообщения
Вы не можете удалять свои сообщения
Вы не можете голосовать в опросах
Вы не можете прикреплять файлы к сообщениям
Вы не можете скачивать файлы