(Pop Classic) The Royal Philharmonic Orchestra - Most Famous Hits - 2002, APE (image+.cue), lossless


 

[Цитировать]

(Pop Classic) The Royal Philharmonic Orchestra - Most Famous Hits - 2002, APE (image+.cue), lossless
Жанр: Pop Classic
Год выпуска диска: 2002
Производитель диска: UK
Аудио кодек: APE
Тип рипа: image+.cue
Битрейт аудио: lossless
Продолжительность: 2CD
Трэклист:
CD1
1. As Time Goes By 3:02
2. Beauty and the Beast 2:56
3. Bilitis 3:35
4. Blue Velvet 2:07
5. Chariots of Fire 4:31
6. Colours of the Wind 4:30
7. A Dream Is a Wish Your Heart Makes 3:56
8. Invisible Sun 3:48
9. Lily Was Here 4:01
10. If You Leave Me Now 3:18
11. Moon River 2:41
12. Over the Rainbow 3:24
13. Love Changes Everything 3:19
14. Roxanne 4:19
15. Somewhere 2:35
16. Stand by Me 3:37
17. Summertime 3:16
18. The Look of Love 3:09
CD2
1. The Sounds of Silence
2. The Way We Were
3. A Sommer Place [Theme]
4. People
5. True Love
6. Unchained Melody
7. Someday
8. When I Fall in Love
9. Where Do I Begin
10. Cruella de Vil
11. Evergreen
12. Everything I Do I Do It for You
13. Hopelessly Devoted to You
14. Someone to Watch Over Me
15. The Best You Can Do
16. Somewhere My Love
17. Walking on the Moon
18. When You Wish Upon a Star
Издатель: Surpr!se
Extra:LOGs, CUESheets, Covers

Отчёт EAC_CD1

Exact Audio Copy V0.99 prebeta 5 from 4. May 2009
Отчёт EAC об извлечении, выполненном 20. мая 2009, 22:07
The Royal Philharmonic Orchestra / Most Famous Hits
Дисковод: Optiarc DVD RW AD-7170S Adapter: 3 ID: 0
Режим чтения : Достоверность
Использование точного потока : Да
Отключение кэша аудио : Да
Использование указателей C2 : Нет
Коррекция смещения при чтении : 48
Способность читать области Lead-in и Lead-out : Нет
Заполнение пропущенных сэмплов тишиной : Да
Удаление блоков с тишиной в начале и конце : Нет
При вычислениях CRC использовались нулевые сэмплы : Да
Интерфейс : Установленный внешний ASPI-интерфейс
Выходной формат : Внутренние WAV-операции
Формат сэмплов : 44.100 Гц; 16 бит; стерео
TOC извлечённого CD
Трек | Старт | Длительность | Начальный сектор | Конечный сектор
---------------------------------------------------------------------
1 | 0:01.00 | 3:02.01 | 75 | 13725
2 | 3:03.01 | 2:56.21 | 13726 | 26946
3 | 5:59.22 | 3:35.12 | 26947 | 43083
4 | 9:34.34 | 2:07.74 | 43084 | 52682
5 | 11:42.33 | 4:31.22 | 52683 | 73029
6 | 16:13.55 | 4:30.16 | 73030 | 93295
7 | 20:43.71 | 3:56.51 | 93296 | 111046
8 | 24:40.47 | 3:48.61 | 111047 | 128207
9 | 28:29.33 | 4:01.43 | 128208 | 146325
10 | 32:31.01 | 3:18.10 | 146326 | 161185
11 | 35:49.11 | 2:41.03 | 161186 | 173263
12 | 38:30.14 | 3:24.05 | 173264 | 188568
13 | 41:54.19 | 3:19.30 | 188569 | 203523
14 | 45:13.49 | 4:19.04 | 203524 | 222952
15 | 49:32.53 | 2:35.68 | 222953 | 234645
16 | 52:08.46 | 3:37.37 | 234646 | 250957
17 | 55:46.08 | 3:16.34 | 250958 | 265691
18 | 59:02.42 | 3:09.74 | 265692 | 279940
Характеристики диапазона извлечения и сообщения об ошибках
Выбранный диапазон
Имя файла E:\MUSIC\Музыка\Classic\The Royal Philarmonic Orchestra\The Royal Philarmonic Orchestra_lossless\The Royal Philharmonic Orchestra - Most Famous Hits.wav
Пиковый уровень 98.8 %
Качество диапазона 100.0 %
CRC копии 9BC4E1D8
Копирование... OK
Ошибок не произошло
Конец отчёта

Отчёт EACCD2

Exact Audio Copy V0.99 prebeta 5 from 4. May 2009
Отчёт EAC об извлечении, выполненном 20. мая 2009, 22:45
The Royal Philharmonic Orchestra / Most Famous Hits
Дисковод: Optiarc DVD RW AD-7170S Adapter: 3 ID: 0
Режим чтения : Достоверность
Использование точного потока : Да
Отключение кэша аудио : Да
Использование указателей C2 : Нет
Коррекция смещения при чтении : 48
Способность читать области Lead-in и Lead-out : Нет
Заполнение пропущенных сэмплов тишиной : Да
Удаление блоков с тишиной в начале и конце : Нет
При вычислениях CRC использовались нулевые сэмплы : Да
Интерфейс : Установленный внешний ASPI-интерфейс
Выходной формат : Внутренние WAV-операции
Формат сэмплов : 44.100 Гц; 16 бит; стерео
TOC извлечённого CD
Трек | Старт | Длительность | Начальный сектор | Конечный сектор
---------------------------------------------------------------------
1 | 0:01.00 | 3:09.28 | 75 | 14277
2 | 3:10.28 | 4:12.13 | 14278 | 33190
3 | 7:22.41 | 3:13.16 | 33191 | 47681
4 | 10:35.57 | 3:57.47 | 47682 | 65503
5 | 14:33.29 | 2:46.50 | 65504 | 78003
6 | 17:20.04 | 3:43.39 | 78004 | 94767
7 | 21:03.43 | 4:48.70 | 94768 | 116437
8 | 25:52.38 | 3:04.58 | 116438 | 130295
9 | 28:57.21 | 2:55.73 | 130296 | 143493
10 | 31:53.19 | 4:44.28 | 143494 | 164821
11 | 36:37.47 | 3:26.63 | 164822 | 180334
12 | 40:04.35 | 4:01.24 | 180335 | 198433
13 | 44:05.59 | 2:48.52 | 198434 | 211085
14 | 46:54.36 | 3:05.41 | 211086 | 225001
15 | 50:00.02 | 3:27.67 | 225002 | 240593
16 | 53:27.69 | 2:53.33 | 240594 | 253601
17 | 56:21.27 | 3:47.50 | 253602 | 270676
18 | 60:09.02 | 4:29.22 | 270677 | 290873
Характеристики диапазона извлечения и сообщения об ошибках
Выбранный диапазон
Имя файла E:\MUSIC\Музыка\Classic\The Royal Philarmonic Orchestra\The Royal Philarmonic Orchestra_lossless\The Royal Philharmonic Orchestra - Most Famous Hits.wav
Пиковый уровень 98.8 %
Качество диапазона 99.9 %
CRC копии A339207F
Копирование... OK
Ошибок не произошло
Конец отчёта
Доп. информация: The Royal Philharmonic Orchestra (RPO) is a British orchestra based in London. It tours widely, and is sometimes referred to as “Britain's national orchestra”.



Показать сообщения:    

Текущее время: 06-Дек 22:56

Часовой пояс: UTC + 3


Вы не можете начинать темы
Вы не можете отвечать на сообщения
Вы не можете редактировать свои сообщения
Вы не можете удалять свои сообщения
Вы не можете голосовать в опросах
Вы не можете прикреплять файлы к сообщениям
Вы не можете скачивать файлы