(Classical, Opera, Trance) Trance Opera - Fantasies - 2001, APE (image+.cue), lossless


 

[Цитировать]

Trance Opera - Fantasies Жанр: Classical, Opera, Trance
Год выпуска диска: 2001
Производитель диска: USA
Аудио кодек: APE
Тип рипа: image+.cue
Битрейт аудио: lossless
Продолжительность: 01:12:11
-
Треклист:
01. Theme From "Rain Man"
(Title Theme from the Movie "Rain Man")
02. Ebben/La Wally
(Aria from the Opera "La Wally")
03. Libiamo/Brindisi
(Trio from the Opera "La Traviata")
04. Time To Say Goodbay
(instrumental)
05. Un Bei Di Vedremo
(Aria from the Opera "Madam Butterfly")
06. La Donna E Mobile
(Aria from the Opera "Rigoletto")
07. Conguest Of Paradise (Columbs Mix)
(Title Theme from the Movie "1492")
08. Chariot Of The Sun
(Aria from the Opera "Carmen")
09. Habanera
(Aria from the Opera "Carmen")
10. Miss Saraevo
(Original Mix)
11. Scene' Et Legende De La Fille Du Paria
(Aria from the Opera "Lakme")
12. Sous Le Dome Epais Le Jasmin
(Aria from the Opera "Lakme")
13. Pomp&Grcumstance Opus 39, №1 O Major
-
Доп. информация: Коллектив Trance Opera мастерски соединил в себе классические оперные партии с современным звучанием, чем серьезно привлек внимание тинейджеров к лучшим образцам мирового оперного искусства.
-

EAC log

Exact Audio Copy V0.99 prebeta 4 from 23. January 2008
Отчёт EAC об извлечении, выполненном 29. марта 2009, 4:05
Trance Opera / Fantasies
Дисковод: Optiarc DVD RW AD-7203S Adapter: 0 ID: 0
Режим чтения : Достоверность
Использование точного потока : Да
Отключение кэша аудио : Да
Использование указателей C2 : Нет
Коррекция смещения при чтении : 48
Способность читать области Lead-in и Lead-out : Нет
Заполнение пропущенных сэмплов тишиной : Да
Удаление блоков с тишиной в начале и конце : Нет
При вычислениях CRC использовались нулевые сэмплы : Да
Интерфейс : Установленный внешний ASPI-интерфейс
Выходной формат : Внутренние WAV-операции
Формат сэмплов : 44.100 Гц; 16 бит; стерео
TOC извлечённого CD
Трек | Старт | Длительность | Начальный сектор | Конечный сектор
---------------------------------------------------------------------
1 | 0:00.00 | 5:06.72 | 0 | 23021
2 | 5:06.72 | 4:08.03 | 23022 | 41624
3 | 9:15.00 | 5:35.73 | 41625 | 66822
4 | 14:50.73 | 4:08.51 | 66823 | 85473
5 | 18:59.49 | 7:05.17 | 85474 | 117365
6 | 26:04.66 | 4:53.22 | 117366 | 139362
7 | 30:58.13 | 3:51.47 | 139363 | 156734
8 | 34:49.60 | 6:08.02 | 156735 | 184336
9 | 40:57.62 | 6:00.43 | 184337 | 211379
10 | 46:58.30 | 5:34.37 | 211380 | 236466
11 | 52:32.67 | 7:26.29 | 236467 | 269945
12 | 59:59.21 | 5:51.44 | 269946 | 296314
13 | 65:50.65 | 6:20.03 | 296315 | 324817
Характеристики диапазона извлечения и сообщения об ошибках
Выбранный диапазон
Имя файла \Trance Opera - Fantasies.wav
Пиковый уровень 100.0 %
Качество диапазона 99.3 %
CRC копии DA058FED
Копирование завершено
Ошибок не произошло
Конец отчёта

Spectrum

Релиз от:

Ripped by ondrev



Показать сообщения:    

Текущее время: 03-Дек 05:22

Часовой пояс: UTC + 3


Вы не можете начинать темы
Вы не можете отвечать на сообщения
Вы не можете редактировать свои сообщения
Вы не можете удалять свои сообщения
Вы не можете голосовать в опросах
Вы не можете прикреплять файлы к сообщениям
Вы не можете скачивать файлы