(Instrumental, classical) Alex Masi 2 альбома (In The Name of Beethoven + In The Name Of Mozart) - 2005, APE (image+.cue), lossless


 

[Цитировать]

Alex Masi 2 альбома
(In The Name of Beethoven + In The Name Of Mozart)
Alex Masi - In The Name of Beethoven
Жанр: Instrumental, Neoclassic guitar
Год выпуска диска: 2005
Производитель диска: Россия (Irond)
Аудио кодек: APE
Тип рипа: image+.cue+covers
Битрейт аудио: lossless
Продолжительность: 42:14
Трэклист:
01. Symphony #5
02. Sonata #1
03. Romance For Violin #5
04. Sonata No.14 Adagio Sostenuto
05. Sonata No.14 Alegretto
06. Sonata No.14 Rondo Agitato
Рип с личного диска

Отчёт EAC

Exact Audio Copy V0.99 prebeta 4 from 23. January 2008
Отчёт EAC об извлечении, выполненном 4. мая 2009, 18:17
Alex Masi / In The Name of Beethoven
Дисковод: PLEXTOR DVDR PX-755A Adapter: 2 ID: 1
Режим чтения : Достоверность
Использование точного потока : Да
Отключение кэша аудио : Да
Использование указателей C2 : Нет
Коррекция смещения при чтении : 30
Способность читать области Lead-in и Lead-out : Нет
Заполнение пропущенных сэмплов тишиной : Да
Удаление блоков с тишиной в начале и конце : Нет
При вычислениях CRC использовались нулевые сэмплы : Да
Интерфейс : Встроенный Win32-интерфейс для Win NT/2000
Выходной формат : Monkey's Audio Lossless Encoder v3.99 DLL
Формат сэмплов : High Lossless Compression
TOC извлечённого CD
Трек | Старт | Длительность | Начальный сектор | Конечный сектор
---------------------------------------------------------------------
1 | 0:00.00 | 8:12.03 | 0 | 36902
2 | 8:12.03 | 9:35.35 | 36903 | 80062
3 | 17:47.38 | 9:20.31 | 80063 | 122093
4 | 27:07.69 | 5:57.12 | 122094 | 148880
5 | 33:05.06 | 2:16.59 | 148881 | 159139
6 | 35:21.65 | 6:52.17 | 159140 | 190056
Характеристики диапазона извлечения и сообщения об ошибках
Выбранный диапазон
Имя файла Z:\E\Torrents\finished torrent\Music\Classic, Jazz\Alex Masi\Alex Masi - In The Name of Beethoven.ape
Пиковый уровень 100.0 %
Качество диапазона 100.0 %
CRC копии DC48439D
Копирование... OK
Ошибок не произошло
AccurateRip: сводка
Трек 1 нет в базе данных
Трек 2 нет в базе данных
Трек 3 нет в базе данных
Трек 4 нет в базе данных
Трек 5 нет в базе данных
Трек 6 нет в базе данных
Ни одного трека нет в базе AccurateRip
Конец отчёта

-
Alex Masi - In The Name Of Mozart
Жанр: Instrumental, Neoclassic guitar
Год выпуска диска: 2004
Производитель диска: Россия (Irond)
Аудио кодек: APE
Тип рипа: image+.cue+covers
Битрейт аудио: lossless
Продолжительность: 44:13
Трэклист:
01. Allegro (Eine Kleine Nachtmusik, K. 525) 5:20
02. Romanza (Eine Kleine Nachtmusik, K. 525) 8:16
03. Allegro C Maj K. 545 1:53
04. Guitar (Piano) Concerto, No. 24 C Min, K.... 9:37
05. Rondo' a la Turca a Maj, K. 331 3:31
06. Andante K. 545 2:08
07. Thema With 12 Variations D Maj, K. 284 13:24
Рип скачан на www.nnm.ru

Отчёт EAC

Exact Audio Copy V0.99 prebeta 4 from 23. January 2008
EAC extraction logfile from 2. February 2009, 20:26
Alex Masi / In The Name Of Mozart
Used drive : PIONEER DVD-RW DVR-112D Adapter: 4 ID: 0
Read mode : Secure
Utilize accurate stream : Yes
Defeat audio cache : Yes
Make use of C2 pointers : No
Read offset correction : 48
Overread into Lead-In and Lead-Out : No
Fill up missing offset samples with silence : Yes
Delete leading and trailing silent blocks : No
Null samples used in CRC calculations : No
Used interface : Native Win32 interface for Win NT & 2000
Used output format : Internal WAV Routines
Sample format : 44.100 Hz; 16 Bit; Stereo
TOC of the extracted CD
Track | Start | Length | Start sector | End sector
---------------------------------------------------------
1 | 0:00.00 | 5:20.15 | 0 | 24014
2 | 5:20.15 | 8:16.41 | 24015 | 61255
3 | 13:36.56 | 1:53.61 | 61256 | 69791
4 | 15:30.42 | 9:37.04 | 69792 | 113070
5 | 25:07.46 | 3:31.55 | 113071 | 128950
6 | 28:39.26 | 2:08.61 | 128951 | 138611
7 | 30:48.12 | 13:24.35 | 138612 | 198946
Range status and errors
Selected range
Filename C:\1\Alex Masi - In The Name Of Mozart (2004)\Alex Masi - In The Name Of Mozart.wav
Peak level 100.0 %
Range quality 100.0 %
Copy CRC FFA1C1F5
Copy OK
No errors occurred
End of status report



Показать сообщения:    

Текущее время: 08-Дек 17:21

Часовой пояс: UTC + 3


Вы не можете начинать темы
Вы не можете отвечать на сообщения
Вы не можете редактировать свои сообщения
Вы не можете удалять свои сообщения
Вы не можете голосовать в опросах
Вы не можете прикреплять файлы к сообщениям
Вы не можете скачивать файлы