(Classic / Relax) Relax 2000 - 1999, FLAC (image+.cue), lossless - 6 CD Set


 

[Цитировать]

RELAX 2000
Жанр: Classic / Ambient / Relax
Год выпуска диска: 1999
Производитель диска: Россия
Аудио кодек: FLAC
Тип рипа: image+.cue
Битрейт аудио: lossless
Продолжительность: 4h 41' 09"
Описание:
Классические музыкальные произведения в современной обработке с элементами стиля Ambient и звуками природы.
Набор из 6 компакт-дисков, каждый из которых направлен на создание определенного эмоционального состояния.

ANTIDEPRESSANT

Продолжительность: 41'44"

1. "Ария сюита №3 ре-мажор", И.С.Бах
2. "Концерт №20 ре-мажор", В.А.Моцарт
3. "Концерт для фортепиано с оркестром II часть Ilgardelino", А.Вивальди
4. "Месса Папы Марчелло", Дж.П.Палестрина
5. "Орфей, сцена с фуриями", К.В.Глюк
6. "Симфония №93 - II часть", Й.Гайдн

Отчет EAC

Exact Audio Copy V0.99 prebeta 4 from 23. January 2008
Отчёт EAC об извлечении, выполненном 17. апреля 2009, 22:43
Various / Relax 2000 - Antidepressant
Дисковод: Optiarc DVD RW AD-5200A Adapter: 0 ID: 0
Режим чтения : Достоверность
Использование точного потока : Да
Отключение кэша аудио : Да
Использование указателей C2 : Нет
Коррекция смещения при чтении : 48
Способность читать области Lead-in и Lead-out : Нет
Заполнение пропущенных сэмплов тишиной : Да
Удаление блоков с тишиной в начале и конце : Нет
При вычислениях CRC использовались нулевые сэмплы : Да
Интерфейс : Встроенный Win32-интерфейс для Win NT/2000
Выходной формат : Пользовательский кодировщик
Выбранный битрейт : 768 kBit/s
Качество : Высокий
Добавление ID3-тэга : Нет
Утилита сжатия : C:\Program Files\Exact Audio Copy\FLAC\FLAC.EXE
Дополнительные параметры : -6 -V -T "ARTIST=%a" -T "TITLE=%t" -T "ALBUM=%g" -T "DATE=%y" -T "TRACKNUMBER=%n" -T "GENRE=%m" -T "COMMENT=%e" %s -o %d
Смещение при сжатии : 0
TOC извлечённого CD
Трек | Старт | Длительность | Начальный сектор | Конечный сектор
---------------------------------------------------------------------
1 | 0:00.00 | 9:19.01 | 0 | 41925
2 | 9:19.01 | 4:35.47 | 41926 | 62597
3 | 13:54.48 | 6:45.71 | 62598 | 93043
4 | 20:40.44 | 6:49.40 | 93044 | 123758
5 | 27:30.09 | 6:51.26 | 123759 | 154609
6 | 34:21.35 | 7:22.71 | 154610 | 187830
Характеристики диапазона извлечения и сообщения об ошибках
Выбранный диапазон
Имя файла E:\Lossless\Relax2000\Various - Antidepressant.wav
Пиковый уровень 96.5 %
Качество диапазона 99.9 %
CRC теста 740E530A
CRC копии 740E530A
Копирование... OK
Ошибок не произошло
Конец отчёта

ANTISTRESS

Продолжительность: 44'46"

1. "Лебедь", К.Сен-Санс
2. "К Элизе", Л.Бетховен
3. "Прелюдия ми-минор", Ф.Шопен
4. "Серенада", Ф.Шуберт
5. "Тень твоей улыбки", Дж.Мендель
6. "Баркарола", П.Чайковский

Отчет EAC

Exact Audio Copy V0.99 prebeta 4 from 23. January 2008
Отчёт EAC об извлечении, выполненном 17. апреля 2009, 20:11
Various / Relax 2000 - Antistress
Дисковод: Optiarc DVD RW AD-5200A Adapter: 0 ID: 0
Режим чтения : Достоверность
Использование точного потока : Да
Отключение кэша аудио : Да
Использование указателей C2 : Нет
Коррекция смещения при чтении : 48
Способность читать области Lead-in и Lead-out : Нет
Заполнение пропущенных сэмплов тишиной : Да
Удаление блоков с тишиной в начале и конце : Нет
При вычислениях CRC использовались нулевые сэмплы : Да
Интерфейс : Встроенный Win32-интерфейс для Win NT/2000
Выходной формат : Пользовательский кодировщик
Выбранный битрейт : 768 kBit/s
Качество : Высокий
Добавление ID3-тэга : Нет
Утилита сжатия : C:\Program Files\Exact Audio Copy\FLAC\FLAC.EXE
Дополнительные параметры : -6 -V -T "ARTIST=%a" -T "TITLE=%t" -T "ALBUM=%g" -T "DATE=%y" -T "TRACKNUMBER=%n" -T "GENRE=%m" -T "COMMENT=%e" %s -o %d
Смещение при сжатии : 0
TOC извлечённого CD
Трек | Старт | Длительность | Начальный сектор | Конечный сектор
---------------------------------------------------------------------
1 | 0:00.00 | 6:17.21 | 0 | 28295
2 | 6:17.21 | 8:18.66 | 28296 | 65711
3 | 14:36.12 | 7:41.62 | 65712 | 100348
4 | 22:17.74 | 7:07.25 | 100349 | 132398
5 | 29:25.24 | 7:26.17 | 132399 | 165865
6 | 36:51.41 | 7:45.10 | 165866 | 200750
Характеристики диапазона извлечения и сообщения об ошибках
Выбранный диапазон
Имя файла E:\Lossless\Relax2000\Various - Antistress.wav
Пиковый уровень 100.0 %
Качество диапазона 100.0 %
CRC теста 371CCC03
CRC копии 371CCC03
Копирование... OK
Ошибок не произошло
Конец отчёта

EROS

Продолжительность: 49'06"

1. "Болеро", М.Равель
2. "Арехуанский концерт", Х.Родригес

Отчет EAC

Exact Audio Copy V0.99 prebeta 4 from 23. January 2008
Отчёт EAC об извлечении, выполненном 17. апреля 2009, 12:17
Various / Relax 2000 - Eros
Дисковод: _NEC DVD_RW ND-3550A Adapter: 1 ID: 0
Режим чтения : Достоверность
Использование точного потока : Да
Отключение кэша аудио : Да
Использование указателей C2 : Нет
Коррекция смещения при чтении : 48
Способность читать области Lead-in и Lead-out : Нет
Заполнение пропущенных сэмплов тишиной : Да
Удаление блоков с тишиной в начале и конце : Нет
При вычислениях CRC использовались нулевые сэмплы : Да
Интерфейс : Встроенный Win32-интерфейс для Win NT/2000
Выходной формат : Пользовательский кодировщик
Выбранный битрейт : 768 kBit/s
Качество : Высокий
Добавление ID3-тэга : Нет
Утилита сжатия : C:\Program Files\Exact Audio Copy\FLAC\FLAC.EXE
Дополнительные параметры : -6 -V -T "ARTIST=%a" -T "TITLE=%t" -T "ALBUM=%g" -T "DATE=%y" -T "TRACKNUMBER=%n" -T "GENRE=%m" -T "COMMENT=%e" %s -o %d
TOC извлечённого CD
Трек | Старт | Длительность | Начальный сектор | Конечный сектор
---------------------------------------------------------------------
1 | 0:00.00 | 25:05.51 | 0 | 112925
2 | 25:05.51 | 24:00.49 | 112926 | 220974
Характеристики диапазона извлечения и сообщения об ошибках
Выбранный диапазон
Имя файла E:\Lossless\Relax2000\Various - Eros.wav
Пиковый уровень 96.5 %
Качество диапазона 100.0 %
CRC теста 18A35528
CRC копии 18A35528
Копирование... OK
Ошибок не произошло
Конец отчёта

SOMNUS

Продолжительность: 50'21"

1. "Колыбельная", В.А.Моцарт
2. "Песня Сольвейг", Э.Григ
3. "Колыбельная", А.А.Спендиаров
4. "Прелюдия из ХТК", И.С.Бах
5. "Ария Дидоны", Г.Персел
6. "Хоральная прелюдия", И.С.Бах

Отчет EAC

Exact Audio Copy V0.99 prebeta 4 from 23. January 2008
Отчёт EAC об извлечении, выполненном 17. апреля 2009, 23:15
Various / Relax 2000 - Somnus
Дисковод: Optiarc DVD RW AD-5200A Adapter: 0 ID: 0
Режим чтения : Достоверность
Использование точного потока : Да
Отключение кэша аудио : Да
Использование указателей C2 : Нет
Коррекция смещения при чтении : 48
Способность читать области Lead-in и Lead-out : Нет
Заполнение пропущенных сэмплов тишиной : Да
Удаление блоков с тишиной в начале и конце : Нет
При вычислениях CRC использовались нулевые сэмплы : Да
Интерфейс : Встроенный Win32-интерфейс для Win NT/2000
Выходной формат : Пользовательский кодировщик
Выбранный битрейт : 768 kBit/s
Качество : Высокий
Добавление ID3-тэга : Нет
Утилита сжатия : C:\Program Files\Exact Audio Copy\FLAC\FLAC.EXE
Дополнительные параметры : -6 -V -T "ARTIST=%a" -T "TITLE=%t" -T "ALBUM=%g" -T "DATE=%y" -T "TRACKNUMBER=%n" -T "GENRE=%m" -T "COMMENT=%e" %s -o %d
Смещение при сжатии : 0
TOC извлечённого CD
Трек | Старт | Длительность | Начальный сектор | Конечный сектор
---------------------------------------------------------------------
1 | 0:00.00 | 7:49.74 | 0 | 35248
2 | 7:49.74 | 8:39.15 | 35249 | 74188
3 | 16:29.14 | 8:43.60 | 74189 | 113473
4 | 25:12.74 | 7:20.00 | 113474 | 146473
5 | 32:32.74 | 6:25.37 | 146474 | 175385
6 | 38:58.36 | 11:22.57 | 175386 | 226592
Характеристики диапазона извлечения и сообщения об ошибках
Выбранный диапазон
Имя файла E:\Lossless\Relax2000\Various - Somnus.wav
Пиковый уровень 96.5 %
Качество диапазона 99.9 %
CRC теста 88C0A859
CRC копии 88C0A859
Копирование... OK
Ошибок не произошло
Конец отчёта

STIMULUS

Продолжительность: 46'03"

1. "Маскарад", А.И.Хачатурян
2. "Осень", А.Вивальди
3. "Танец маленьких рыцарей", С.С.Прокофьев
4. "Танец Эгины", А.И.Хачатурян
5. "Зима", А.Вивальди
6. "Этюд", Ф.Шопен

Отчет EAC

Exact Audio Copy V0.99 prebeta 4 from 23. January 2008
Отчёт EAC об извлечении, выполненном 17. апреля 2009, 12:41
Various / Relax 2000 - Stimulus
Дисковод: _NEC DVD_RW ND-3550A Adapter: 1 ID: 0
Режим чтения : Достоверность
Использование точного потока : Да
Отключение кэша аудио : Да
Использование указателей C2 : Нет
Коррекция смещения при чтении : 48
Способность читать области Lead-in и Lead-out : Нет
Заполнение пропущенных сэмплов тишиной : Да
Удаление блоков с тишиной в начале и конце : Нет
При вычислениях CRC использовались нулевые сэмплы : Да
Интерфейс : Встроенный Win32-интерфейс для Win NT/2000
Выходной формат : Пользовательский кодировщик
Выбранный битрейт : 768 kBit/s
Качество : Высокий
Добавление ID3-тэга : Нет
Утилита сжатия : C:\Program Files\Exact Audio Copy\FLAC\FLAC.EXE
Дополнительные параметры : -6 -V -T "ARTIST=%a" -T "TITLE=%t" -T "ALBUM=%g" -T "DATE=%y" -T "TRACKNUMBER=%n" -T "GENRE=%m" -T "COMMENT=%e" %s -o %d
TOC извлечённого CD
Трек | Старт | Длительность | Начальный сектор | Конечный сектор
---------------------------------------------------------------------
1 | 0:00.00 | 8:41.32 | 0 | 39106
2 | 8:41.32 | 7:29.19 | 39107 | 72800
3 | 16:10.51 | 6:59.22 | 72801 | 104247
4 | 23:09.73 | 5:43.60 | 104248 | 130032
5 | 28:53.58 | 7:24.15 | 130033 | 163347
6 | 36:17.73 | 9:45.27 | 163348 | 207249
Характеристики диапазона извлечения и сообщения об ошибках
Выбранный диапазон
Имя файла E:\Lossless\Relax2000\Various - Stimulus.wav
Пиковый уровень 100.0 %
Качество диапазона 100.0 %
CRC теста 869ED2B3
CRC копии 869ED2B3
Копирование... OK
Ошибок не произошло
Конец отчёта

TONIZATOR

Продолжительность: 49'19"

1. "У прекрасного голубого Дуная", И.Штраус
2. "Каприс №21 ля-минор", Н.Паганини
3. "Весенние голоса", И.Штраус
4. "Рондо в турецком стиле", В.А.Моцарт
5. "Увертюра к опере 'Вильгельм Телль'", Дж.Россини
6. "Мелодия", А.Дворжак

Отчет EAC

Exact Audio Copy V0.99 prebeta 4 from 23. January 2008
Отчёт EAC об извлечении, выполненном 17. апреля 2009, 22:13
Various / Relax 2000 - Tonizator
Дисковод: Optiarc DVD RW AD-5200A Adapter: 0 ID: 0
Режим чтения : Достоверность
Использование точного потока : Да
Отключение кэша аудио : Да
Использование указателей C2 : Нет
Коррекция смещения при чтении : 48
Способность читать области Lead-in и Lead-out : Нет
Заполнение пропущенных сэмплов тишиной : Да
Удаление блоков с тишиной в начале и конце : Нет
При вычислениях CRC использовались нулевые сэмплы : Да
Интерфейс : Встроенный Win32-интерфейс для Win NT/2000
Выходной формат : Пользовательский кодировщик
Выбранный битрейт : 768 kBit/s
Качество : Высокий
Добавление ID3-тэга : Нет
Утилита сжатия : C:\Program Files\Exact Audio Copy\FLAC\FLAC.EXE
Дополнительные параметры : -6 -V -T "ARTIST=%a" -T "TITLE=%t" -T "ALBUM=%g" -T "DATE=%y" -T "TRACKNUMBER=%n" -T "GENRE=%m" -T "COMMENT=%e" %s -o %d
Смещение при сжатии : 0
TOC извлечённого CD
Трек | Старт | Длительность | Начальный сектор | Конечный сектор
---------------------------------------------------------------------
1 | 0:00.00 | 11:06.28 | 0 | 49977
2 | 11:06.28 | 7:13.66 | 49978 | 82518
3 | 18:20.19 | 6:16.41 | 82519 | 110759
4 | 24:36.60 | 7:33.21 | 110760 | 144755
5 | 32:10.06 | 7:55.70 | 144756 | 180450
6 | 40:06.01 | 9:13.31 | 180451 | 221956
Характеристики диапазона извлечения и сообщения об ошибках
Выбранный диапазон
Имя файла E:\Lossless\Relax2000\Various - Tonizator.wav
Пиковый уровень 96.5 %
Качество диапазона 100.0 %
CRC теста E13F0C8A
CRC копии E13F0C8A
Копирование... OK
Ошибок не произошло
Конец отчёта



Показать сообщения:    

Текущее время: 04-Дек 00:50

Часовой пояс: UTC + 3


Вы не можете начинать темы
Вы не можете отвечать на сообщения
Вы не можете редактировать свои сообщения
Вы не можете удалять свои сообщения
Вы не можете голосовать в опросах
Вы не можете прикреплять файлы к сообщениям
Вы не можете скачивать файлы