(Classical, Instrumental) Boston Pops Orchestra - Arthur Fiedler - 100 Fiedler Favorites (7CD) - 1994, FLAC (tracks+.cue), lossless


 

[Цитировать]

Boston Pops Orchestra - Arthur Fiedler - 100 Fiedler Favorites (7CD)
Жанр: Classical, Instrumental
Год выпуска диска: 1994
Производитель диска: USA
Аудио кодек: FLAC
Тип рипа: tracks+.cue
Битрейт аудио: lossless
Трэклист:

Disc 1

01 Suppe: Light Cavalry Overture 6:39
02 Bach-Cailliet: Little Fugue In G Minor 3:33
03 Dinieu-Heifetz: Hora Staccato 2:07
04 Prokofiev: Love For Three Oranges March 1:28
05 Kreisler: Tambourin Chinois 3:34
06 Liszt: Hungarian Rhapsody 9:35
07 Grieg: Morning 3:58
08 Wagner: Ride Of The Valkyries 5:25
09 Borodin: In The Steppes Of Central Asia 7:37
10 Weber: Overture 8:23
11 Copland: Hoedown 3:14
12 Granados: Intermezzo 4:25
13 Rossini: William Tell Overture 11:47
Total playing time - 72:27

Disc 2

01 Suppe: Poet And Peasant Overture 9:45
02 Nicolai: The Merry Wives Of Windsor Overture 7:34
03 Wagner: Lohengrin Act III Prelude 2:51
04 Brahms: Hungarian Dance No. 6 3:23
05 Grieg: Solveig's Song 5:33
06 Weber: Freischutz Overture 8:19
07 Borodin: Polovtsian Dances 10:55
08 Mozart: Sleigh Ride 2:39
09 Rimsky-Korsakov: Procession Of The Nobles 4:28
10 Jessel: Parade Of The Wooden Soldiers 3:55
11 Enesco: Roumanian Rhapsody No. 1 11:39
12 Khachaturian: Sabre Dance 2:23
Total playing time - 73:54

Disc 3

01 Debussy: Reverie 4:38
02 Wolf-Ferrari: Dance Of The Cammoristi 3:36
03 Bach: Air On The G String 3:45
04 Brahms: Cradle Song 2:41
05 Handel: Largo 6:07
06 Schubert: Serenade 4:10
07 Rimsky-Korsakov: Song Of India 3:33
08 Khachaturian: Gayne Lullaby 4:53
09 Drigo: Serenade 5:08
10 Mendelssohn: Spring Song 2:33
11 Toselli: Serenade 3:46
12 Mascagni: Intermezzo from Cavalleria Rusticana Intermezzo 3:30
13 Boccherini: Minuet 3:25
14 Liszt: Liebestraum 4:11
15 Tchaikovsky: None But The Lonely Heart 3:22
16 Puccini: Humming Chorus from Madama Butterfly Humming Chorus 2:42
17 Humperdinck: Dream Pantomime from Hansel And Gretel Dream Pantomime 9:38
Total playing time - 72:18

Disc 4

01 J.Strauss,Jr.:Tales From The Vienna Woods 10:49
02 Waldteufel: The Skater's Waltz 8:33
03 J.& Josef Strauss: Pizzicato Polka 2:36
04 J.Strauss,Jr.: Wine, Women & Song 9:29
05 J.Strauss,Jr.: Thunder And Lightning Polka 2:56
06 J.Strauss,Jr.: Roses From The South 7:08
07 Lehar: The Count Of Luxemburg Waltzes 6:28
08 Josef Strauss: Music Of The Spheres 8:24
09 J.Strauss,Jr.: Acceleration Waltz 8:39
10 J.Strauss,Jr.: On The Beautiful Blue Danube 8:15
Total playing time - 73:43

Disc 5

01 Verdi: Aida Grand March 3:34
02 Herbert: March Of The Toys 3:48
03 Sousa: Semper Fidelis 2:35
04 Tchaikovsky: Nutcracker Suite March 1:58
05 Gould: Yankee Doodle 2:31
06 Morse: Up The Street 2:09
07 Berlioz: Rakoczy March 3:45
08 Rodgers: March Of The Siamese Children 3:26
09 Ippolitov-Ivanov: Procession Of The Sardar 3:45
10 Planquette: Sambre Et Meuse 3:57
11 Beethoven: Turkish March 1:37
12 Alford: Colonel Bogey 3:06
13 Emmett-Black: Dixie 0:47
14 Gould: American Salute 4:10
15 Gershwin: Strike Up The Band 2:45
16 Mendelssohn: War March Of The Priests 5:26
17 Sibelius: Sibelius Alla Marcia 4:08
18 Gounod: Funeral March Of A Marionette 4:06
19 Elgar: Pomp And Circumstance 5:44
20 Hansen: Valdres March 3:22
21 Bagley: National Emblem March 3:00
22 Sousa: The Stars And Stripes Forever 3:26
Total playing time - 74:38

Disc 6

01 Gershwin: Cuban Overture 9:20
02 Gershwin: Rhapsody In Blue 16:15
03 Copland: El Salon Mexico 10:10
04 Gould: Interplay Gavotte 2:16
05 Gould: Interplay Blues 3:39
06 Rodgers: Slaughter On Tenth Avenue 8:52
07 Anderson: The Typewriter 1:34
08 George M.: Cohan Medley 8:05
Total playing time - 60:34

Disc 7

01 Garland: In The Mood 3:24
02 Lennon-McCartney: Eleanor Rigby 3:17
03 Parish-Carmichael: Stardust 3:07
04 Brecht-Weill: Mack The Knife 3:02
05 Popp-Cour: Love Is Blue 4:16
06 Kern-Harbach: Smoke Gets In Your Eyes 4:21
07 Presley-Matson: Love Me Tender 4:02
08 Anderson: The Syncopated Clock 2:18
09 Raksin: Laura 2:54
10 Lai-Barouh-Keller: A Man And A Woman 3:57
11 Miller-Parish: Moonlight Serenade 4:18
12 MacColl: The First Time I Saw Your Face 5:11
13 Galero-Monterde: La Virgen De La Macarena 3:33
14 Maneini-Mercer: Moon River 3:42
15 Maneini-Mercer: Days Of Wine And Roses 3:31
16 Herman: Mame 2:43
17 Cory-Gross: I Left My Heart In San Francisco 4:31
18 Wonder: You Are The Sunshine Of My Life 3:19
19 Gade: Jalousie 3:41
Total playing time - 70:00
Доп. информация-Отчет ЕАС:

Disc1

Exact Audio Copy V0.99 prebeta 4 from 23. January 2008
EAC extraction logfile from 28. March 2009, 19:44
Arthur Fiedler Boston Pops / 100 Fiedler Favorites - Disc 1
Used drive : Memorex 16X-DDL-IN Adapter: 1 ID: 1
Read mode : SecureUtilize accurate stream : YesDefeat audio cache : YesMake use of C2 pointers : No
Read offset correction : 48Overread into Lead-In and Lead-Out : NoFill up missing offset samples with silence : YesDelete leading and trailing silent blocks : NoNull samples used in CRC calculations : YesUsed interface : Installed external ASPI interfaceGap handling : Appended to previous track
Used output format : Internal WAV RoutinesSample format : 44.100 Hz; 16 Bit; Stereo
TOC of the extracted CD
Track | Start | Length | Start sector | End sector --------------------------------------------------------- 1 | 0:00.00 | 6:43.05 | 0 | 30229 2 | 6:43.05 | 3:35.40 | 30230 | 46394 3 | 10:18.45 | 2:10.48 | 46395 | 56192 4 | 12:29.18 | 1:30.65 | 56193 | 63007 5 | 14:00.08 | 3:36.42 | 63008 | 79249 6 | 17:36.50 | 9:38.58 | 79250 | 122657 7 | 27:15.33 | 4:02.12 | 122658 | 140819 8 | 31:17.45 | 5:28.18 | 140820 | 165437 9 | 36:45.63 | 7:39.67 | 165438 | 199929 10 | 44:25.55 | 8:27.53 | 199930 | 238007 11 | 52:53.33 | 3:18.37 | 238008 | 252894 12 | 56:11.70 | 4:28.70 | 252895 | 273064 13 | 60:40.65 | 11:46.70 | 273065 | 326084
Track 1
Filename E:\MP3-APE\WAV\Arthur Fiedler Boston Pops\100 Fiedler Favorites - Disc 1\01-Light Cavalry Overture.wav
Pre-gap length 0:00:02.00
Peak level 85.1 % Track quality 100.0 % Copy CRC 3B69797B Copy OK
Track 2
Filename E:\MP3-APE\WAV\Arthur Fiedler Boston Pops\100 Fiedler Favorites - Disc 1\02-Little Fugue In G Minor.wav
Pre-gap length 0:00:02.56
Peak level 83.5 % Track quality 99.9 % Copy CRC F9CC5875 Copy OK
Track 3
Filename E:\MP3-APE\WAV\Arthur Fiedler Boston Pops\100 Fiedler Favorites - Disc 1\03-Hora Staccato.wav
Pre-gap length 0:00:02.56
Peak level 51.8 % Track quality 100.0 % Copy CRC BCB73C97 Copy OK
Track 4
Filename E:\MP3-APE\WAV\Arthur Fiedler Boston Pops\100 Fiedler Favorites - Disc 1\04-Love For Three Oranges March.wav
Pre-gap length 0:00:03.37
Peak level 99.5 % Track quality 100.0 % Copy CRC 151E2355 Copy OK
Track 5
Filename E:\MP3-APE\WAV\Arthur Fiedler Boston Pops\100 Fiedler Favorites - Disc 1\05-Tambourin Chinois.wav
Pre-gap length 0:00:02.33
Peak level 94.2 % Track quality 100.0 % Copy CRC A669C4DD Copy OK
Track 6
Filename E:\MP3-APE\WAV\Arthur Fiedler Boston Pops\100 Fiedler Favorites - Disc 1\06-Hungarian Rhapsody.wav
Pre-gap length 0:00:02.20
Peak level 75.7 % Track quality 99.9 % Copy CRC 23924DC8 Copy OK
Track 7
Filename E:\MP3-APE\WAV\Arthur Fiedler Boston Pops\100 Fiedler Favorites - Disc 1\07-Morning.wav
Pre-gap length 0:00:02.86
Peak level 55.8 % Track quality 100.0 % Copy CRC C3270F36 Copy OK
Track 8
Filename E:\MP3-APE\WAV\Arthur Fiedler Boston Pops\100 Fiedler Favorites - Disc 1\08-Ride Of The Valkyries.wav
Pre-gap length 0:00:03.02
Peak level 67.8 % Track quality 100.0 % Copy CRC 1461F6DB Copy OK
Track 9
Filename E:\MP3-APE\WAV\Arthur Fiedler Boston Pops\100 Fiedler Favorites - Disc 1\09-In The Steppes Of Central Asia.wav
Pre-gap length 0:00:02.66
Peak level 75.4 % Track quality 99.9 % Copy CRC 4E43A45F Copy OK
Track 10
Filename E:\MP3-APE\WAV\Arthur Fiedler Boston Pops\100 Fiedler Favorites - Disc 1\10-Overture.wav
Pre-gap length 0:00:02.73
Peak level 96.8 % Track quality 99.9 % Copy CRC 8F0B813C Copy OK
Track 11
Filename E:\MP3-APE\WAV\Arthur Fiedler Boston Pops\100 Fiedler Favorites - Disc 1\11-Hoedown.wav
Pre-gap length 0:00:04.70
Peak level 77.8 % Track quality 100.0 % Copy CRC CA2D68C9 Copy OK
Track 12
Filename E:\MP3-APE\WAV\Arthur Fiedler Boston Pops\100 Fiedler Favorites - Disc 1\12-Intermezzo.wav
Pre-gap length 0:00:03.82
Peak level 65.2 % Track quality 100.0 % Copy CRC 580A3806 Copy OK
Track 13
Filename E:\MP3-APE\WAV\Arthur Fiedler Boston Pops\100 Fiedler Favorites - Disc 1\13-William Tell Overture.wav
Pre-gap length 0:00:03.46
Peak level 97.2 % Track quality 100.0 % Copy CRC C1FF57A3 Copy OK
No errors occurred
End of status report

Disc 2

Exact Audio Copy V0.99 prebeta 4 from 23. January 2008
EAC extraction logfile from 28. March 2009, 20:01
Arthur Fiedler Boston Pops / 100 Fiedler Favorites - Disc 2
Used drive : Memorex 16X-DDL-IN Adapter: 1 ID: 1
Read mode : SecureUtilize accurate stream : YesDefeat audio cache : YesMake use of C2 pointers : No
Read offset correction : 48Overread into Lead-In and Lead-Out : NoFill up missing offset samples with silence : YesDelete leading and trailing silent blocks : NoNull samples used in CRC calculations : YesUsed interface : Installed external ASPI interfaceGap handling : Appended to previous track
Used output format : Internal WAV RoutinesSample format : 44.100 Hz; 16 Bit; Stereo
TOC of the extracted CD
Track | Start | Length | Start sector | End sector --------------------------------------------------------- 1 | 0:00.00 | 9:48.30 | 0 | 44129 2 | 9:48.30 | 7:36.45 | 44130 | 78374 3 | 17:25.00 | 2:54.45 | 78375 | 91469 4 | 20:19.45 | 3:26.42 | 91470 | 106961 5 | 23:46.12 | 5:36.05 | 106962 | 132166 6 | 29:22.17 | 8:19.38 | 132167 | 169629 7 | 37:41.55 | 10:58.72 | 169630 | 219051 8 | 48:40.52 | 2:43.15 | 219052 | 231291 9 | 51:23.67 | 4:30.20 | 231292 | 251561 10 | 55:54.12 | 3:56.48 | 251562 | 269309 11 | 59:50.60 | 11:41.67 | 269310 | 321951 12 | 71:32.52 | 2:23.33 | 321952 | 332709
Track 1
Filename E:\MP3-APE\WAV\Arthur Fiedler Boston Pops\100 Fiedler Favorites - Disc 2\01-Poet And Peasant Overture.wav
Pre-gap length 0:00:02.00
Peak level 96.4 % Track quality 99.9 % Copy CRC 7F088B1F Copy OK
Track 2
Filename E:\MP3-APE\WAV\Arthur Fiedler Boston Pops\100 Fiedler Favorites - Disc 2\02-The Merry Wives Of Windsor Overture.wav
Pre-gap length 0:00:00.49
Peak level 90.5 % Track quality 99.9 % Copy CRC 3269C476 Copy OK
Track 3
Filename E:\MP3-APE\WAV\Arthur Fiedler Boston Pops\100 Fiedler Favorites - Disc 2\03-Lohengrin Act III Prelude.wav
Pre-gap length 0:00:01.62
Peak level 84.5 % Track quality 100.0 % Copy CRC B858B00A Copy OK
Track 4
Filename E:\MP3-APE\WAV\Arthur Fiedler Boston Pops\100 Fiedler Favorites - Disc 2\04-Hungarian Dance No. 6.wav
Pre-gap length 0:00:02.69
Peak level 85.9 % Track quality 99.9 % Copy CRC 5F73F8B3 Copy OK
Track 5
Filename E:\MP3-APE\WAV\Arthur Fiedler Boston Pops\100 Fiedler Favorites - Disc 2\05-Solveig's Song.wav
Pre-gap length 0:00:01.36
Peak level 56.6 % Track quality 100.0 % Copy CRC 6C66554D Copy OK
Track 6
Filename E:\MP3-APE\WAV\Arthur Fiedler Boston Pops\100 Fiedler Favorites - Disc 2\06-Freischutz Overture.wav
Pre-gap length 0:00:02.76
Peak level 100.0 % Track quality 100.0 % Copy CRC 4C5C134E Copy OK
Track 7
Filename E:\MP3-APE\WAV\Arthur Fiedler Boston Pops\100 Fiedler Favorites - Disc 2\07-Polovtsian Dances.wav
Pre-gap length 0:00:02.33
Peak level 83.9 % Track quality 100.0 % Copy CRC 6C493D27 Copy OK
Track 8
Filename E:\MP3-APE\WAV\Arthur Fiedler Boston Pops\100 Fiedler Favorites - Disc 2\08-Sleigh Ride.wav
Pre-gap length 0:00:01.89
Peak level 56.3 % Track quality 100.0 % Copy CRC FEFE92AE Copy OK
Track 9
Filename E:\MP3-APE\WAV\Arthur Fiedler Boston Pops\100 Fiedler Favorites - Disc 2\09-Procession Of The Nobles.wav
Pre-gap length 0:00:02.29
Peak level 99.9 % Track quality 100.0 % Copy CRC B02F4D18 Copy OK
Track 10
Filename E:\MP3-APE\WAV\Arthur Fiedler Boston Pops\100 Fiedler Favorites - Disc 2\10-Parade Of The Wooden Soldiers.wav
Pre-gap length 0:00:02.26
Peak level 84.4 % Track quality 100.0 % Copy CRC D38F0A46 Copy OK
Track 11
Filename E:\MP3-APE\WAV\Arthur Fiedler Boston Pops\100 Fiedler Favorites - Disc 2\11-Roumanian Rhapsody No. 1.wav
Pre-gap length 0:00:01.16
Peak level 96.0 % Track quality 100.0 % Copy CRC F6C565C2 Copy OK
Track 12
Filename E:\MP3-APE\WAV\Arthur Fiedler Boston Pops\100 Fiedler Favorites - Disc 2\12-Sabre Dance.wav
Pre-gap length 0:00:02.22
Peak level 88.1 % Track quality 99.9 % Copy CRC 021E1645 Copy OK
No errors occurred
End of status report

Disc 3

Exact Audio Copy V0.99 prebeta 4 from 23. January 2008
EAC extraction logfile from 28. March 2009, 20:19
Arthur Fiedler Boston Pops / 100 Fiedler Favorites - Disc 3
Used drive : Memorex 16X-DDL-IN Adapter: 1 ID: 1
Read mode : SecureUtilize accurate stream : YesDefeat audio cache : YesMake use of C2 pointers : No
Read offset correction : 48Overread into Lead-In and Lead-Out : NoFill up missing offset samples with silence : YesDelete leading and trailing silent blocks : NoNull samples used in CRC calculations : YesUsed interface : Installed external ASPI interfaceGap handling : Appended to previous track
Used output format : Internal WAV RoutinesSample format : 44.100 Hz; 16 Bit; Stereo
TOC of the extracted CD
Track | Start | Length | Start sector | End sector --------------------------------------------------------- 1 | 0:00.00 | 4:42.05 | 0 | 21154 2 | 4:42.05 | 3:36.70 | 21155 | 37424 3 | 8:19.00 | 3:49.03 | 37425 | 54602 4 | 12:08.03 | 2:43.12 | 54603 | 66839 5 | 14:51.15 | 6:10.03 | 66840 | 94592 6 | 21:01.18 | 4:12.50 | 94593 | 113542 7 | 25:13.68 | 3:35.57 | 113543 | 129724 8 | 28:49.50 | 4:54.73 | 129725 | 151847 9 | 33:44.48 | 5:10.50 | 151848 | 175147 10 | 38:55.23 | 2:36.22 | 175148 | 186869 11 | 41:31.45 | 3:48.55 | 186870 | 204024 12 | 45:20.25 | 3:32.33 | 204025 | 219957 13 | 48:52.58 | 3:26.67 | 219958 | 235474 14 | 52:19.50 | 4:12.50 | 235475 | 254424 15 | 56:32.25 | 3:23.63 | 254425 | 269712 16 | 59:56.13 | 2:44.45 | 269713 | 282057 17 | 62:40.58 | 9:38.55 | 282058 | 325462
Track 1
Filename E:\MP3-APE\WAV\Arthur Fiedler Boston Pops\100 Fiedler Favorites - Disc 3\01-Reverie.wav
Pre-gap length 0:00:02.00
Peak level 83.1 % Track quality 100.0 % Copy CRC D6EC0F9C Copy OK
Track 2
Filename E:\MP3-APE\WAV\Arthur Fiedler Boston Pops\100 Fiedler Favorites - Disc 3\02-Dance Of The Cammoristi.wav
Pre-gap length 0:00:03.06
Peak level 90.7 % Track quality 100.0 % Copy CRC B70A751E Copy OK
Track 3
Filename E:\MP3-APE\WAV\Arthur Fiedler Boston Pops\100 Fiedler Favorites - Disc 3\03-Air On The G String.wav
Pre-gap length 0:00:01.00
Peak level 53.5 % Track quality 100.0 % Copy CRC 8FE18441 Copy OK
Track 4
Filename E:\MP3-APE\WAV\Arthur Fiedler Boston Pops\100 Fiedler Favorites - Disc 3\04-Brahms Cradle Song.wav
Pre-gap length 0:00:02.50
Peak level 66.0 % Track quality 100.0 % Copy CRC B8B8A66C Copy OK
Track 5
Filename E:\MP3-APE\WAV\Arthur Fiedler Boston Pops\100 Fiedler Favorites - Disc 3\05-Handel Largo.wav
Pre-gap length 0:00:02.66
Peak level 56.5 % Track quality 100.0 % Copy CRC E9EFCB12 Copy OK
Track 6
Filename E:\MP3-APE\WAV\Arthur Fiedler Boston Pops\100 Fiedler Favorites - Disc 3\06-Schubert Serenade.wav
Pre-gap length 0:00:02.57
Peak level 55.9 % Track quality 99.9 % Copy CRC 45472413 Copy OK
Track 7
Filename E:\MP3-APE\WAV\Arthur Fiedler Boston Pops\100 Fiedler Favorites - Disc 3\07-Song Of India.wav
Pre-gap length 0:00:01.50
Peak level 28.4 % Track quality 100.0 % Copy CRC 4D3795C4 Copy OK
Track 8
Filename E:\MP3-APE\WAV\Arthur Fiedler Boston Pops\100 Fiedler Favorites - Disc 3\08-Gayne Lullaby.wav
Pre-gap length 0:00:02.56
Peak level 56.4 % Track quality 100.0 % Copy CRC D3AF850D Copy OK
Track 9
Filename E:\MP3-APE\WAV\Arthur Fiedler Boston Pops\100 Fiedler Favorites - Disc 3\09-Drigo Serenade.wav
Pre-gap length 0:00:01.66
Peak level 27.2 % Track quality 100.0 % Copy CRC B5B88766 Copy OK
Track 10
Filename E:\MP3-APE\WAV\Arthur Fiedler Boston Pops\100 Fiedler Favorites - Disc 3\10-Spring Song.wav
Pre-gap length 0:00:01.84
Peak level 51.2 % Track quality 100.0 % Copy CRC C2802D8B Copy OK
Track 11
Filename E:\MP3-APE\WAV\Arthur Fiedler Boston Pops\100 Fiedler Favorites - Disc 3\11-Toselli Serenade.wav
Pre-gap length 0:00:03.60
Peak level 78.7 % Track quality 100.0 % Copy CRC 3933DF83 Copy OK
Track 12
Filename E:\MP3-APE\WAV\Arthur Fiedler Boston Pops\100 Fiedler Favorites - Disc 3\12-Cavalleria Rusticana Intermezzo.wav
Pre-gap length 0:00:01.80
Peak level 87.5 % Track quality 100.0 % Copy CRC 27375F3E Copy OK
Track 13
Filename E:\MP3-APE\WAV\Arthur Fiedler Boston Pops\100 Fiedler Favorites - Disc 3\13-Boccherini Minuet.wav
Pre-gap length 0:00:01.33
Peak level 59.3 % Track quality 99.9 % Copy CRC DACF31B5 Copy OK
Track 14
Filename E:\MP3-APE\WAV\Arthur Fiedler Boston Pops\100 Fiedler Favorites - Disc 3\14-Liebestraum.wav
Pre-gap length 0:00:01.16
Peak level 93.3 % Track quality 99.9 % Copy CRC A1A69F90 Copy OK
Track 15
Filename E:\MP3-APE\WAV\Arthur Fiedler Boston Pops\100 Fiedler Favorites - Disc 3\15-None But The Lonely Heart.wav
Pre-gap length 0:00:01.40
Peak level 90.2 % Track quality 100.0 % Copy CRC C53C964C Copy OK
Track 16
Filename E:\MP3-APE\WAV\Arthur Fiedler Boston Pops\100 Fiedler Favorites - Disc 3\16-Madama Butterfly Humming Chorus.wav
Pre-gap length 0:00:01.50
Peak level 26.9 % Track quality 100.0 % Copy CRC 82125475 Copy OK
Track 17
Filename E:\MP3-APE\WAV\Arthur Fiedler Boston Pops\100 Fiedler Favorites - Disc 3\17-Hansel And Gretel Dream Pantomime.wav
Pre-gap length 0:00:01.50
Peak level 93.3 % Track quality 100.0 % Copy CRC AD744522 Copy OK
No errors occurred
End of status report

Disc 4

Exact Audio Copy V0.99 prebeta 4 from 23. January 2008
EAC extraction logfile from 28. March 2009, 20:35
Arthur Fiedler Boston Pops / 100 Fiedler Favorites - Disc 4
Used drive : Memorex 16X-DDL-IN Adapter: 1 ID: 1
Read mode : SecureUtilize accurate stream : YesDefeat audio cache : YesMake use of C2 pointers : No
Read offset correction : 48Overread into Lead-In and Lead-Out : NoFill up missing offset samples with silence : YesDelete leading and trailing silent blocks : NoNull samples used in CRC calculations : YesUsed interface : Installed external ASPI interfaceGap handling : Appended to previous track
Used output format : Internal WAV RoutinesSample format : 44.100 Hz; 16 Bit; Stereo
TOC of the extracted CD
Track | Start | Length | Start sector | End sector --------------------------------------------------------- 1 | 0:00.00 | 10:50.48 | 0 | 48797 2 | 10:50.48 | 8:34.72 | 48798 | 87419 3 | 19:25.45 | 2:38.38 | 87420 | 99307 4 | 22:04.08 | 9:31.57 | 99308 | 142189 5 | 31:35.65 | 3:00.03 | 142190 | 155692 6 | 34:35.68 | 7:10.05 | 155693 | 187947 7 | 41:45.73 | 6:31.20 | 187948 | 217292 8 | 48:17.18 | 8:27.70 | 217293 | 255387 9 | 56:45.13 | 8:43.02 | 255388 | 294614 10 | 65:28.15 | 8:15.73 | 294615 | 331812
Track 1
Filename E:\MP3-APE\WAV\Arthur Fiedler Boston Pops\100 Fiedler Favorites - Disc 4\01-Tales From The Vienna Woods.wav
Pre-gap length 0:00:02.00
Peak level 85.5 % Track quality 100.0 % Copy CRC 035C8120 Copy OK
Track 2
Filename E:\MP3-APE\WAV\Arthur Fiedler Boston Pops\100 Fiedler Favorites - Disc 4\02-The Skater's Waltz.wav
Pre-gap length 0:00:00.24
Peak level 97.7 % Track quality 100.0 % Copy CRC 0A41E789 Copy OK
Track 3
Filename E:\MP3-APE\WAV\Arthur Fiedler Boston Pops\100 Fiedler Favorites - Disc 4\03-Pizzicato Polka.wav
Pre-gap length 0:00:00.93
Peak level 97.7 % Track quality 100.0 % Copy CRC F2B37A70 Copy OK
Track 4
Filename E:\MP3-APE\WAV\Arthur Fiedler Boston Pops\100 Fiedler Favorites - Disc 4\04-Wine, Women & Song.wav
Pre-gap length 0:00:02.10
Peak level 97.7 % Track quality 100.0 % Copy CRC E829A539 Copy OK
Track 5
Filename E:\MP3-APE\WAV\Arthur Fiedler Boston Pops\100 Fiedler Favorites - Disc 4\05-Thunder And Lightning Polka.wav
Pre-gap length 0:00:01.89
Peak level 100.0 % Track quality 100.0 % Copy CRC 57457248 Copy OK
Track 6
Filename E:\MP3-APE\WAV\Arthur Fiedler Boston Pops\100 Fiedler Favorites - Disc 4\06-Roses From The South.wav
Pre-gap length 0:00:03.97
Peak level 57.5 % Track quality 100.0 % Copy CRC 6FC60030 Copy OK
Track 7
Filename E:\MP3-APE\WAV\Arthur Fiedler Boston Pops\100 Fiedler Favorites - Disc 4\07-The Count Of Luxemburg Waltzes.wav
Pre-gap length 0:00:02.50
Peak level 76.4 % Track quality 100.0 % Copy CRC FB8A4B50 Copy OK
Track 8
Filename E:\MP3-APE\WAV\Arthur Fiedler Boston Pops\100 Fiedler Favorites - Disc 4\08-Music Of The Spheres.wav
Pre-gap length 0:00:02.86
Peak level 63.6 % Track quality 100.0 % Copy CRC 882DFC84 Copy OK
Track 9
Filename E:\MP3-APE\WAV\Arthur Fiedler Boston Pops\100 Fiedler Favorites - Disc 4\09-Acceleration Waltz.wav
Pre-gap length 0:00:02.93
Peak level 81.2 % Track quality 100.0 % Copy CRC 50B4E75F Copy OK
Track 10
Filename E:\MP3-APE\WAV\Arthur Fiedler Boston Pops\100 Fiedler Favorites - Disc 4\10-On The Beautiful Blue Danube.wav
Pre-gap length 0:00:03.00
Peak level 93.6 % Track quality 100.0 % Copy CRC 8AB5405B Copy OK
No errors occurred
End of status report

Disc 5

Exact Audio Copy V0.99 prebeta 4 from 23. January 2008
EAC extraction logfile from 28. March 2009, 20:49
Arthur Fiedler Boston Pops / 100 Fiedler Favorites - Disc 5
Used drive : Memorex 16X-DDL-IN Adapter: 1 ID: 1
Read mode : SecureUtilize accurate stream : YesDefeat audio cache : YesMake use of C2 pointers : No
Read offset correction : 48Overread into Lead-In and Lead-Out : NoFill up missing offset samples with silence : YesDelete leading and trailing silent blocks : NoNull samples used in CRC calculations : YesUsed interface : Installed external ASPI interfaceGap handling : Appended to previous track
Used output format : Internal WAV RoutinesSample format : 44.100 Hz; 16 Bit; Stereo
TOC of the extracted CD
Track | Start | Length | Start sector | End sector --------------------------------------------------------- 1 | 0:00.00 | 3:38.65 | 0 | 16414 2 | 3:38.65 | 3:51.50 | 16415 | 33789 3 | 7:30.40 | 2:37.50 | 33790 | 45614 4 | 10:08.15 | 2:01.50 | 45615 | 54739 5 | 12:09.65 | 2:34.37 | 54740 | 66326 6 | 14:44.27 | 2:12.15 | 66327 | 76241 7 | 16:56.42 | 4:15.13 | 76242 | 95379 8 | 21:11.55 | 3:29.10 | 95380 | 111064 9 | 24:40.65 | 3:48.37 | 111065 | 128201 10 | 28:29.27 | 3:59.53 | 128202 | 146179 11 | 32:29.05 | 1:40.60 | 146180 | 153739 12 | 34:09.65 | 3:09.50 | 153740 | 167964 13 | 37:19.40 | 0:50.12 | 167965 | 171726 14 | 38:09.52 | 4:12.50 | 171727 | 190676 15 | 42:22.27 | 2:47.50 | 190677 | 203251 16 | 45:10.02 | 5:29.63 | 203252 | 227989 17 | 50:39.65 | 4:10.02 | 227990 | 246741 18 | 54:49.67 | 4:09.33 | 246742 | 265449 19 | 58:59.25 | 5:46.27 | 265450 | 291426 20 | 64:45.52 | 3:25.03 | 291427 | 306804 21 | 68:10.55 | 3:03.20 | 306805 | 320549 22 | 71:14.00 | 3:25.25 | 320550 | 335949
Track 1
Filename E:\MP3-APE\WAV\Arthur Fiedler Boston Pops\100 Fiedler Favorites - Disc 5\01-Aida Grand March.wav
Pre-gap length 0:00:02.00
Peak level 99.8 % Track quality 100.0 % Copy CRC 0597EA0D Copy OK
Track 2
Filename E:\MP3-APE\WAV\Arthur Fiedler Boston Pops\100 Fiedler Favorites - Disc 5\02-March Of The Toys.wav
Pre-gap length 0:00:02.93
Peak level 88.5 % Track quality 100.0 % Copy CRC 42F29468 Copy OK
Track 3
Filename E:\MP3-APE\WAV\Arthur Fiedler Boston Pops\100 Fiedler Favorites - Disc 5\03-Semper Fidelis.wav
Pre-gap length 0:00:03.13
Peak level 78.1 % Track quality 100.0 % Copy CRC 7621CA97 Copy OK
Track 4
Filename E:\MP3-APE\WAV\Arthur Fiedler Boston Pops\100 Fiedler Favorites - Disc 5\04-Nutcracker Suite March.wav
Pre-gap length 0:00:03.22
Peak level 20.8 % Track quality 100.0 % Copy CRC 3F9AAD81 Copy OK
Track 5
Filename E:\MP3-APE\WAV\Arthur Fiedler Boston Pops\100 Fiedler Favorites - Disc 5\05-Yankee Doodle.wav
Pre-gap length 0:00:03.06
Peak level 77.2 % Track quality 100.0 % Copy CRC 9AD3A2D7 Copy OK
Track 6
Filename E:\MP3-APE\WAV\Arthur Fiedler Boston Pops\100 Fiedler Favorites - Disc 5\06-Up The Street.wav
Pre-gap length 0:00:03.02
Peak level 82.2 % Track quality 100.0 % Copy CRC A6C4C0FA Copy OK
Track 7
Filename E:\MP3-APE\WAV\Arthur Fiedler Boston Pops\100 Fiedler Favorites - Disc 5\07-Rakoczy March.wav
Pre-gap length 0:00:03.06
Peak level 98.7 % Track quality 100.0 % Copy CRC 239CDD02 Copy OK
Track 8
Filename E:\MP3-APE\WAV\Arthur Fiedler Boston Pops\100 Fiedler Favorites - Disc 5\08-March Of The Siamese Children.wav
Pre-gap length 0:00:02.46
Peak level 69.8 % Track quality 100.0 % Copy CRC 420CB3A8 Copy OK
Track 9
Filename E:\MP3-APE\WAV\Arthur Fiedler Boston Pops\100 Fiedler Favorites - Disc 5\09-Procession Of The Sardar.wav
Pre-gap length 0:00:03.33
Peak level 89.0 % Track quality 100.0 % Copy CRC A76688C1 Copy OK
Track 10
Filename E:\MP3-APE\WAV\Arthur Fiedler Boston Pops\100 Fiedler Favorites - Disc 5\10-Sambre Et Meuse.wav
Pre-gap length 0:00:03.06
Peak level 73.7 % Track quality 100.0 % Copy CRC 03588A33 Copy OK
Track 11
Filename E:\MP3-APE\WAV\Arthur Fiedler Boston Pops\100 Fiedler Favorites - Disc 5\11-Turkish March.wav
Pre-gap length 0:00:02.93
Peak level 61.2 % Track quality 100.0 % Copy CRC B4091AB8 Copy OK
Track 12
Filename E:\MP3-APE\WAV\Arthur Fiedler Boston Pops\100 Fiedler Favorites - Disc 5\12-Colonel Bogey.wav
Pre-gap length 0:00:03.06
Peak level 97.2 % Track quality 100.0 % Copy CRC 859130AB Copy OK
Track 13
Filename E:\MP3-APE\WAV\Arthur Fiedler Boston Pops\100 Fiedler Favorites - Disc 5\13-Dixie.wav
Pre-gap length 0:00:03.06
Peak level 67.5 % Track quality 100.0 % Copy CRC B594429A Copy OK
Track 14
Filename E:\MP3-APE\WAV\Arthur Fiedler Boston Pops\100 Fiedler Favorites - Disc 5\14-American Salute.wav
Pre-gap length 0:00:03.02
Peak level 68.0 % Track quality 99.9 % Copy CRC A505817E Copy OK
Track 15
Filename E:\MP3-APE\WAV\Arthur Fiedler Boston Pops\100 Fiedler Favorites - Disc 5\15-Strike Up The Band.wav
Pre-gap length 0:00:03.06
Peak level 91.2 % Track quality 100.0 % Copy CRC B016A0A6 Copy OK
Track 16
Filename E:\MP3-APE\WAV\Arthur Fiedler Boston Pops\100 Fiedler Favorites - Disc 5\16-War March Of The Priests.wav
Pre-gap length 0:00:02.69
Peak level 81.7 % Track quality 100.0 % Copy CRC 5D401062 Copy OK
Track 17
Filename E:\MP3-APE\WAV\Arthur Fiedler Boston Pops\100 Fiedler Favorites - Disc 5\17-Sibelius Alla Marcia.wav
Pre-gap length 0:00:02.82
Peak level 95.3 % Track quality 99.9 % Copy CRC A7D01E37 Copy OK
Track 18
Filename E:\MP3-APE\WAV\Arthur Fiedler Boston Pops\100 Fiedler Favorites - Disc 5\18-Funeral March Of A Marionette.wav
Pre-gap length 0:00:01.26
Peak level 91.6 % Track quality 100.0 % Copy CRC A5D35E79 Copy OK
Track 19
Filename E:\MP3-APE\WAV\Arthur Fiedler Boston Pops\100 Fiedler Favorites - Disc 5\19-Pomp And Circumstance.wav
Pre-gap length 0:00:02.26
Peak level 78.7 % Track quality 99.9 % Copy CRC 8135BF2F Copy OK
Track 20
Filename E:\MP3-APE\WAV\Arthur Fiedler Boston Pops\100 Fiedler Favorites - Disc 5\20-Valdres March.wav
Pre-gap length 0:00:01.62
Peak level 71.5 % Track quality 100.0 % Copy CRC 196A196B Copy OK
Track 21
Filename E:\MP3-APE\WAV\Arthur Fiedler Boston Pops\100 Fiedler Favorites - Disc 5\21-National Emblem March.wav
Pre-gap length 0:00:03.06
Peak level 85.3 % Track quality 99.9 % Copy CRC EF195B6B Copy OK
Track 22
Filename E:\MP3-APE\WAV\Arthur Fiedler Boston Pops\100 Fiedler Favorites - Disc 5\22-The Stars And Stripes Forever.wav
Pre-gap length 0:00:03.06
Peak level 97.2 % Track quality 100.0 % Copy CRC 56EE508B Copy OK
No errors occurred
End of status report

Disc 6

Exact Audio Copy V0.99 prebeta 4 from 23. January 2008
EAC extraction logfile from 28. March 2009, 21:03
Arthur Fiedler Boston Pops / 100 Fiedler Favorites - Disc 6
Used drive : Memorex 16X-DDL-IN Adapter: 1 ID: 1
Read mode : SecureUtilize accurate stream : YesDefeat audio cache : YesMake use of C2 pointers : No
Read offset correction : 48Overread into Lead-In and Lead-Out : NoFill up missing offset samples with silence : YesDelete leading and trailing silent blocks : NoNull samples used in CRC calculations : YesUsed interface : Installed external ASPI interfaceGap handling : Appended to previous track
Used output format : Internal WAV RoutinesSample format : 44.100 Hz; 16 Bit; Stereo
TOC of the extracted CD
Track | Start | Length | Start sector | End sector --------------------------------------------------------- 1 | 0:00.00 | 9:23.60 | 0 | 42284 2 | 9:23.60 | 16:17.28 | 42285 | 115587 3 | 25:41.13 | 10:12.52 | 115588 | 161539 4 | 35:53.65 | 2:22.05 | 161540 | 172194 5 | 38:15.70 | 3:41.53 | 172195 | 188822 6 | 41:57.48 | 8:54.72 | 188823 | 228944 7 | 50:52.45 | 1:36.70 | 228945 | 236214 8 | 52:29.40 | 8:05.48 | 236215 | 272637
Track 1
Filename E:\MP3-APE\WAV\Arthur Fiedler Boston Pops\100 Fiedler Favorites - Disc 6\01-Cuban Overture.wav
Pre-gap length 0:00:02.00
Peak level 87.0 % Track quality 100.0 % Copy CRC 79CB4380 Copy OK
Track 2
Filename E:\MP3-APE\WAV\Arthur Fiedler Boston Pops\100 Fiedler Favorites - Disc 6\02-Rhapsody In Blue.wav
Pre-gap length 0:00:02.56
Peak level 96.6 % Track quality 100.0 % Copy CRC E64EB60F Copy OK
Track 3
Filename E:\MP3-APE\WAV\Arthur Fiedler Boston Pops\100 Fiedler Favorites - Disc 6\03-El Salon Mexico.wav
Pre-gap length 0:00:02.46
Peak level 95.5 % Track quality 100.0 % Copy CRC EA93A80B Copy OK
Track 4
Filename E:\MP3-APE\WAV\Arthur Fiedler Boston Pops\100 Fiedler Favorites - Disc 6\04-Interplay Gavotte.wav
Pre-gap length 0:00:02.60
Peak level 53.8 % Track quality 100.0 % Copy CRC F6408CA9 Copy OK
Track 5
Filename E:\MP3-APE\WAV\Arthur Fiedler Boston Pops\100 Fiedler Favorites - Disc 6\05-Blues.wav
Pre-gap length 0:00:05.62
Peak level 22.1 % Track quality 100.0 % Copy CRC 1A9B3FEB Copy OK
Track 6
Filename E:\MP3-APE\WAV\Arthur Fiedler Boston Pops\100 Fiedler Favorites - Disc 6\06-Slaughter On Tenth Avenue.wav
Pre-gap length 0:00:02.53
Peak level 80.1 % Track quality 99.9 % Copy CRC 340F54AC Copy OK
Track 7
Filename E:\MP3-APE\WAV\Arthur Fiedler Boston Pops\100 Fiedler Favorites - Disc 6\07-The Typewriter.wav
Pre-gap length 0:00:02.56
Peak level 60.3 % Track quality 100.0 % Copy CRC BDD2E900 Copy OK
Track 8
Filename E:\MP3-APE\WAV\Arthur Fiedler Boston Pops\100 Fiedler Favorites - Disc 6\08-George M. Cohan Medley.wav
Pre-gap length 0:00:02.62
Peak level 64.2 % Track quality 100.0 % Copy CRC 7B86B81D Copy OK
No errors occurred
End of status report

Disc 7

Exact Audio Copy V0.99 prebeta 4 from 23. January 2008
EAC extraction logfile from 28. March 2009, 21:20
Arthur Fiedler Boston Pops / 100 Fiedler Favorites - Disc 7
Used drive : Memorex 16X-DDL-IN Adapter: 1 ID: 1
Read mode : SecureUtilize accurate stream : YesDefeat audio cache : YesMake use of C2 pointers : No
Read offset correction : 48Overread into Lead-In and Lead-Out : NoFill up missing offset samples with silence : YesDelete leading and trailing silent blocks : NoNull samples used in CRC calculations : YesUsed interface : Installed external ASPI interfaceGap handling : Appended to previous track
Used output format : Internal WAV RoutinesSample format : 44.100 Hz; 16 Bit; Stereo
TOC of the extracted CD
Track | Start | Length | Start sector | End sector --------------------------------------------------------- 1 | 0:00.00 | 3:27.13 | 0 | 15537 2 | 3:27.13 | 3:19.42 | 15538 | 30504 3 | 6:46.55 | 3:11.33 | 30505 | 44862 4 | 9:58.13 | 3:04.67 | 44863 | 58729 5 | 13:03.05 | 4:19.20 | 58730 | 78174 6 | 17:22.25 | 4:23.60 | 78175 | 97959 7 | 21:46.10 | 4:04.53 | 97960 | 116312 8 | 25:50.63 | 2:20.45 | 116313 | 126857 9 | 28:11.33 | 2:57.10 | 126858 | 140142 10 | 31:08.43 | 3:59.20 | 140143 | 158087 11 | 35:07.63 | 4:21.20 | 158088 | 177682 12 | 39:29.08 | 5:14.00 | 177683 | 201232 13 | 44:43.08 | 3:35.70 | 201233 | 217427 14 | 48:19.03 | 3:45.22 | 217428 | 234324 15 | 52:04.25 | 3:33.58 | 234325 | 250357 16 | 55:38.08 | 2:45.67 | 250358 | 262799 17 | 58:24.00 | 4:34.48 | 262800 | 283397 18 | 62:58.48 | 3:21.07 | 283398 | 298479 19 | 66:19.55 | 3:41.28 | 298480 | 315082
Track 1
Filename E:\MP3-APE\WAV\Arthur Fiedler Boston Pops\100 Fiedler Favorites - Disc 7\01-In The Mood.wav
Pre-gap length 0:00:02.00
Peak level 86.2 % Track quality 100.0 % Copy CRC 5673AD01 Copy OK
Track 2
Filename E:\MP3-APE\WAV\Arthur Fiedler Boston Pops\100 Fiedler Favorites - Disc 7\02-Eleanor Rigby.wav
Pre-gap length 0:00:02.00
Peak level 93.4 % Track quality 99.9 % Copy CRC FD7E054E Copy OK
Track 3
Filename E:\MP3-APE\WAV\Arthur Fiedler Boston Pops\100 Fiedler Favorites - Disc 7\03-Stardust.wav
Pre-gap length 0:00:02.56
Peak level 92.9 % Track quality 100.0 % Copy CRC 2236A07E Copy OK
Track 4
Filename E:\MP3-APE\WAV\Arthur Fiedler Boston Pops\100 Fiedler Favorites - Disc 7\04-Mack The Knife.wav
Pre-gap length 0:00:02.37
Peak level 60.3 % Track quality 100.0 % Copy CRC BBCC6FC3 Copy OK
Track 5
Filename E:\MP3-APE\WAV\Arthur Fiedler Boston Pops\100 Fiedler Favorites - Disc 7\05-Love Is Blue.wav
Pre-gap length 0:00:02.40
Peak level 77.4 % Track quality 100.0 % Copy CRC 3F7CBC8D Copy OK
Track 6
Filename E:\MP3-APE\WAV\Arthur Fiedler Boston Pops\100 Fiedler Favorites - Disc 7\06-Smoke Gets In Your Eyes.wav
Pre-gap length 0:00:02.46
Peak level 58.7 % Track quality 100.0 % Copy CRC 5D850A9F Copy OK
Track 7
Filename E:\MP3-APE\WAV\Arthur Fiedler Boston Pops\100 Fiedler Favorites - Disc 7\07-Love Me Tender.wav
Pre-gap length 0:00:02.20
Peak level 89.5 % Track quality 99.9 % Copy CRC 55B6AE74 Copy OK
Track 8
Filename E:\MP3-APE\WAV\Arthur Fiedler Boston Pops\100 Fiedler Favorites - Disc 7\08-The Syncopated Clock.wav
Pre-gap length 0:00:02.44
Peak level 73.7 % Track quality 100.0 % Copy CRC FBAFAF2B Copy OK
Track 9
Filename E:\MP3-APE\WAV\Arthur Fiedler Boston Pops\100 Fiedler Favorites - Disc 7\09-Laura.wav
Pre-gap length 0:00:02.00
Peak level 75.5 % Track quality 100.0 % Copy CRC 8C0B6B5B Copy OK
Track 10
Filename E:\MP3-APE\WAV\Arthur Fiedler Boston Pops\100 Fiedler Favorites - Disc 7\10-A Man And A Woman.wav
Pre-gap length 0:00:02.44
Peak level 80.0 % Track quality 100.0 % Copy CRC 91E471E1 Copy OK
Track 11
Filename E:\MP3-APE\WAV\Arthur Fiedler Boston Pops\100 Fiedler Favorites - Disc 7\11-Moonlight Serenade.wav
Pre-gap length 0:00:02.44
Peak level 99.9 % Track quality 100.0 % Copy CRC E2701E86 Copy OK
Track 12
Filename E:\MP3-APE\WAV\Arthur Fiedler Boston Pops\100 Fiedler Favorites - Disc 7\12-The First Time I Saw Your Face.wav
Pre-gap length 0:00:02.57
Peak level 96.8 % Track quality 100.0 % Copy CRC 0C23496E Copy OK
Track 13
Filename E:\MP3-APE\WAV\Arthur Fiedler Boston Pops\100 Fiedler Favorites - Disc 7\13-La Virgen De La Macarena.wav
Pre-gap length 0:00:02.17
Peak level 75.5 % Track quality 100.0 % Copy CRC 9AC50C42 Copy OK
Track 14
Filename E:\MP3-APE\WAV\Arthur Fiedler Boston Pops\100 Fiedler Favorites - Disc 7\14-Moon River.wav
Pre-gap length 0:00:02.50
Peak level 62.1 % Track quality 100.0 % Copy CRC A64D0451 Copy OK
Track 15
Filename E:\MP3-APE\WAV\Arthur Fiedler Boston Pops\100 Fiedler Favorites - Disc 7\15-Days Of Wine And Roses.wav
Pre-gap length 0:00:02.42
Peak level 52.6 % Track quality 100.0 % Copy CRC C51E7FEA Copy OK
Track 16
Filename E:\MP3-APE\WAV\Arthur Fiedler Boston Pops\100 Fiedler Favorites - Disc 7\16-Mame.wav
Pre-gap length 0:00:02.10
Peak level 84.7 % Track quality 100.0 % Copy CRC 21DDC447 Copy OK
Track 17
Filename E:\MP3-APE\WAV\Arthur Fiedler Boston Pops\100 Fiedler Favorites - Disc 7\17-I Left My Heart In San Francisco.wav
Pre-gap length 0:00:02.22
Peak level 56.6 % Track quality 100.0 % Copy CRC 01430908 Copy OK
Track 18
Filename E:\MP3-APE\WAV\Arthur Fiedler Boston Pops\100 Fiedler Favorites - Disc 7\18-You Are The Sunshine Of My Life.wav
Pre-gap length 0:00:01.80
Peak level 73.7 % Track quality 100.0 % Copy CRC 2B551252 Copy OK
Track 19
Filename E:\MP3-APE\WAV\Arthur Fiedler Boston Pops\100 Fiedler Favorites - Disc 7\19-Jalousie.wav
Pre-gap length 0:00:02.40
Peak level 86.0 % Track quality 100.0 % Copy CRC FFEC446C Copy OK
No errors occurred
End of status report



Показать сообщения:    

Текущее время: 04-Дек 04:59

Часовой пояс: UTC + 3


Вы не можете начинать темы
Вы не можете отвечать на сообщения
Вы не можете редактировать свои сообщения
Вы не можете удалять свои сообщения
Вы не можете голосовать в опросах
Вы не можете прикреплять файлы к сообщениям
Вы не можете скачивать файлы