(классика) Various Artists-Шедевры классики (в исполнении эстрадных оркестров) - 2003, APE (image+.cue), lossless


 

[Цитировать]

Various Artists - Шедевры классики (в исполнении эстрадных оркестров)
Жанр: классика
Год выпуска диска: 2003
Производитель диска: россия
Аудио кодек: APE
Тип рипа: image+.cue
Битрейт аудио: lossless
Продолжительность: 73:51
Трэклист:
1. R.King Aria from Suite for Orchestra#3 (Bach) 3:02
2. P.Mauriat Toccata & Fugue in D (Bach) 4:37
3. A.Ventura Symphony#40 in G (Mozart) 3:04
4. B.Stenberg Habanera from *Carmen*(Bizet) 6:14
5. P.Mauriat II barbiere di Siviglia-overture(Rossini) 5:14
6. G.Zamfir Ave Maria(Schubert) 4:43
7. R.Conniff My Serenade(schubert) 2:32
8. P. Mauriat Anitra's Dance from *Peer Gunt*(Grieg) 3:17
9. Walde.de.Los.Rios L'ellisir d'amore(Donizetti) 3:56
10. P.Mauriat Hungarian Dance#5(Brahms) 2:52
11. G.Zamfir Adagio(Albinoni) 4:31
12. The Ventures Symphony #5(Beethoven) 3:52
13. R.Clauderman Polovetsian Dance(Borodin) 3:03
14. R.Clauderman Der Shwan(Saint-Saens) 3:03
15. P.Mauriat Prelude in C (Bach) 2:32
16. A.Ventura Menuet (Boccherini) 3:44
17. P.Mauriat La Traviata(Verdy) 2:16
18. A.Ventura Reverie (Traumerei)(Schumann) 3:32
19. Tomaszewski & Kisieiewski Caprice #24 (Paganini) 2:42
20. A.Ventura Aria from Suite for Orchestra #3(Bach) 4:18
Доп. информация: Компакт диск изготовлен ООО "Росмен-Аудио" (Stereo & Video S&V 066) 2003.
качество отличное.

отчет EAC

Exact Audio Copy V0.99 prebeta 4 from 23. January 2008
Отчёт EAC об извлечении, выполненном 12. апреля 2009, 8:34
Various / Unknown Title
Дисковод: Optiarc DVD RW AD-7173A Adapter: 0 ID: 0
Режим чтения : Достоверность
Использование точного потока : Да
Отключение кэша аудио : Да
Использование указателей C2 : Нет
Коррекция смещения при чтении : 48
Способность читать области Lead-in и Lead-out : Нет
Заполнение пропущенных сэмплов тишиной : Да
Удаление блоков с тишиной в начале и конце : Нет
При вычислениях CRC использовались нулевые сэмплы : Да
Интерфейс : Установленный внешний ASPI-интерфейс
Выходной формат : Внутренние WAV-операции
Формат сэмплов : 44.100 Гц; 16 бит; стерео
TOC извлечённого CD
Трек | Старт | Длительность | Начальный сектор | Конечный сектор
---------------------------------------------------------------------
1 | 0:00.00 | 3:04.31 | 0 | 13830
2 | 3:04.31 | 4:39.07 | 13831 | 34762
3 | 7:43.38 | 3:06.14 | 34763 | 48726
4 | 10:49.52 | 6:16.30 | 48727 | 76956
5 | 17:06.07 | 5:16.48 | 76957 | 100704
6 | 22:22.55 | 4:45.21 | 100705 | 122100
7 | 27:08.01 | 2:34.61 | 122101 | 133711
8 | 29:42.62 | 3:19.54 | 133712 | 148690
9 | 33:02.41 | 3:58.25 | 148691 | 166565
10 | 37:00.66 | 2:54.18 | 166566 | 179633
11 | 39:55.09 | 4:33.47 | 179634 | 200155
12 | 44:28.56 | 3:54.37 | 200156 | 217742
13 | 48:23.18 | 3:05.70 | 217743 | 231687
14 | 51:29.13 | 3:05.39 | 231688 | 245601
15 | 54:34.52 | 2:34.13 | 245602 | 257164
16 | 57:08.65 | 3:46.61 | 257165 | 274175
17 | 60:55.51 | 2:18.66 | 274176 | 284591
18 | 63:14.42 | 3:34.70 | 284592 | 300711
19 | 66:49.37 | 2:44.63 | 300712 | 313074
20 | 69:34.25 | 4:18.07 | 313075 | 332431
Характеристики диапазона извлечения и сообщения об ошибках
Выбранный диапазон
Имя файла D:\Документы\Моя музыка\Классика в страдной обработке\Various - Unknown Title.wav
Пиковый уровень 100.0 %
Качество диапазона 99.9 %
CRC копии 0BC6587B
Копирование... OK
Ошибок не произошло
Конец отчёта



Показать сообщения:    

Текущее время: 07-Дек 23:20

Часовой пояс: UTC + 3


Вы не можете начинать темы
Вы не можете отвечать на сообщения
Вы не можете редактировать свои сообщения
Вы не можете удалять свои сообщения
Вы не можете голосовать в опросах
Вы не можете прикреплять файлы к сообщениям
Вы не можете скачивать файлы