(Pop, Classical, Violin) Vanessa Mae - Star Mark Greatest Hits - 2008, WAVPack (image+.cue), lossless


 

[Цитировать]

Vanessa Mae - Star Mark Greatest Hits
*PLATINUM EDITION *

-
Жанр: Pop, Classical, Violin
Год выпуска диска: 2008
Производитель диска: China
Аудио кодек: WAVPack
Тип рипа: image+.cue
Битрейт аудио: lossless
Продолжительность: CD1 - 01:19:58, CD2 - 01:19:00
-
CD1:
01. Storm
02. Toccata And Fugue In D Minor
03. Sabre Dance
04. Yantra
05. Bach Street Prelude
06. Contradanza
07. Devil's Trill
08. Destiny
09. Classical Gas
10. Leyenda
11. Picante
12. Tango De Los Exilados
13. Widescreen
14. Aurora
15. Night Flight
16. Red Hot
17. (I) Can, Can (You?)

EAC Log CD1

Exact Audio Copy V0.99 prebeta 4 from 23. January 2008
Отчёт EAC об извлечении, выполненном 9. апреля 2009, 22:47
Vanessa Mae / Star Mark Greatest Hits
Дисковод: Optiarc DVD RW AD-7201A Adapter: 0 ID: 0
Режим чтения : ДостоверностьИспользование точного потока : ДаОтключение кэша аудио : ДаИспользование указателей C2 : Нет
Коррекция смещения при чтении : 48Способность читать области Lead-in и Lead-out : НетЗаполнение пропущенных сэмплов тишиной : ДаУдаление блоков с тишиной в начале и конце : НетПри вычислениях CRC использовались нулевые сэмплы : ДаИнтерфейс : Установленный внешний ASPI-интерфейс
Выходной формат : Внутренние WAV-операцииФормат сэмплов : 44.100 Гц; 16 бит; стерео
TOC извлечённого CD
Трек | Старт | Длительность | Начальный сектор | Конечный сектор --------------------------------------------------------------------- 1 | 0:00.00 | 3:45.33 | 0 | 16907 2 | 3:45.33 | 7:49.63 | 16908 | 52145 3 | 11:35.21 | 6:01.15 | 52146 | 79235 4 | 17:36.36 | 5:52.35 | 79236 | 105670 5 | 23:28.71 | 4:27.55 | 105671 | 125750 6 | 27:56.51 | 3:52.13 | 125751 | 143163 7 | 31:48.64 | 3:49.66 | 143164 | 160404 8 | 35:38.55 | 6:48.18 | 160405 | 191022 9 | 42:26.73 | 3:23.12 | 191023 | 206259 10 | 45:50.10 | 6:34.35 | 206260 | 235844 11 | 52:24.45 | 2:57.57 | 235845 | 249176 12 | 55:22.27 | 3:57.63 | 249177 | 267014 13 | 59:20.15 | 3:58.61 | 267015 | 284925 14 | 63:19.01 | 4:58.12 | 284926 | 307287 15 | 68:17.13 | 4:40.13 | 307288 | 328300 16 | 72:57.26 | 3:19.56 | 328301 | 343281 17 | 76:17.07 | 3:40.48 | 343282 | 359829
Характеристики диапазона извлечения и сообщения об ошибках
Выбранный диапазон
Имя файла D:\Моя музыка\Vanessa Mae - Star Mark Greatest Hits (2008)\CD1\Vanessa Mae - Star Mark Greatest Hits.wav
Пиковый уровень 100.0 % Качество диапазона 100.0 % CRC копии 4898C3E1 Копирование... OK
Ошибок не произошло
Конец отчёта

CD2:
01. Raga's Dance
02. Theme From "Caravans"
03. Clear Like Ice
04. Hocus Pocus
05. Reflection
06. City Theme
07. Emerald Tiger
08. I Feel Love
09. White Bird
10. Tequila Mockingbird
11. Bolero For Violin And Orchestra
12. A Poet's Quest (For A Distant Paradise)
13. Jazz Will It Itself
14. Pasha
15. Moroccan Roll
16. Warm Air
17. Happy Valley

EAC Log CD2

Exact Audio Copy V0.99 prebeta 4 from 23. January 2008
Отчёт EAC об извлечении, выполненном 9. апреля 2009, 23:13
Vanessa Mae / Star Mark Greatest Hits CD2
Дисковод: Optiarc DVD RW AD-7201A Adapter: 0 ID: 0
Режим чтения : ДостоверностьИспользование точного потока : ДаОтключение кэша аудио : ДаИспользование указателей C2 : Нет
Коррекция смещения при чтении : 48Способность читать области Lead-in и Lead-out : НетЗаполнение пропущенных сэмплов тишиной : ДаУдаление блоков с тишиной в начале и конце : НетПри вычислениях CRC использовались нулевые сэмплы : ДаИнтерфейс : Установленный внешний ASPI-интерфейс
Выходной формат : Внутренние WAV-операцииФормат сэмплов : 44.100 Гц; 16 бит; стерео
TOC извлечённого CD
Трек | Старт | Длительность | Начальный сектор | Конечный сектор --------------------------------------------------------------------- 1 | 0:00.00 | 5:28.23 | 0 | 24622 2 | 5:28.23 | 5:07.32 | 24623 | 47679 3 | 10:35.55 | 5:11.40 | 47680 | 71044 4 | 15:47.20 | 3:16.22 | 71045 | 85766 5 | 19:03.42 | 4:25.64 | 85767 | 105705 6 | 23:29.31 | 4:31.65 | 105706 | 126095 7 | 28:01.21 | 3:52.40 | 126096 | 143535 8 | 31:53.61 | 6:59.45 | 143536 | 175005 9 | 38:53.31 | 5:32.48 | 175006 | 199953 10 | 44:26.04 | 3:27.72 | 199954 | 215550 11 | 47:54.01 | 5:08.55 | 215551 | 238705 12 | 53:02.56 | 4:33.47 | 238706 | 259227 13 | 57:36.28 | 3:32.66 | 259228 | 275193 14 | 61:09.19 | 4:26.48 | 275194 | 295191 15 | 65:35.67 | 3:10.45 | 295192 | 309486 16 | 68:46.37 | 3:41.20 | 309487 | 326081 17 | 72:27.57 | 6:32.55 | 326082 | 355536
Характеристики диапазона извлечения и сообщения об ошибках
Выбранный диапазон
Имя файла D:\Моя музыка\Vanessa Mae - Star Mark Greatest Hits (2008)\CD2\Vanessa Mae - Star Mark Greatest Hits CD2.wav
Пиковый уровень 100.0 % Качество диапазона 100.0 % CRC копии 8E5A9A4B Копирование... OK
Ошибок не произошло
Конец отчёта



Показать сообщения:    

Текущее время: 04-Дек 09:09

Часовой пояс: UTC + 3


Вы не можете начинать темы
Вы не можете отвечать на сообщения
Вы не можете редактировать свои сообщения
Вы не можете удалять свои сообщения
Вы не можете голосовать в опросах
Вы не можете прикреплять файлы к сообщениям
Вы не можете скачивать файлы