(Classical) Le Forze del destino (G.Verdi,A.Boito,G.Puccini,C.Saent-Saens,A.Catalani) R. Poklitaru/ "Силы судьбы" (Дж. Верди,А. Бойто,Дж. Пуччини,К. Сен - Санс,А. Каталани) Раду Поклитару - 2005, APE (image+.cue), lossless


 

[Цитировать]

"Le Forze del destino" (G.Verdi, A.Boito, G.Puccini, C.Saent-Saens, V. Bellini, A.Catalani) Radu Poklitaru / "Силы судьбы" (Дж. Верди, А. Бойто, Дж. Пуччини, К. Сен - Санс, В. Беллини, А. Каталани) Раду Поклитару
Жанр: Classical
Год выпуска диска: 2005
Производитель диска: Masterwort Production
Аудио кодек: APE
Тип рипа: image+.cue
Битрейт аудио: lossless
Продолжительность: 0:40:15
Приложение: Covers
Музыка к опере - балету "Le Forze del destino"
Режиссёр - постановщик - Раду Поклитару
Исполнители:
Елена Гребенюк (сопрано)
Дополнительная информация:
В проекте "Силы судьбы" использованы арии из произведений: Джузеппе Верди, Арриго Бойто, Джакомо Пуччини, Камиля Сен - Санса, Альфредо Каталани, в авторской интерпретации - Павла ("Picasso") Шевчука.
Электронная аранжировка выполнена Павлом Шевчуком, Paularis Music Group.
Был использован эстрадный интсрументарий: электрогитары, барабаны, синтезаторы и т.д.
В записи сэмплов принимали участие: Андрей Фролов, Дарвин Сейтаблаев, Любовь Орлова.
Работа над проектом происходила с июля 2004 г. по февраль 2005 г. в городах: Киев - Москва - Евпатория - Лондон.
Альбом выпущен при помощи Фонда Искусств Владимира Филиппова
Оркестры и дирижеры на диске не указаны

Трэклист

1. Intro
2. G. Verdi, La Traviata "Addio del passato....."
3. A. Boito, Mefistofile "L'altra notte in fondo al marpe p.1
4. A. Boito, Mefistofile "L'altra notte in fondo al marpe p.2
5. G. Puccini, Gianni Schicchi "O Mio, Babbino Caro...."
6. G. Verdi, La forza del destino "Pace Pace mio dio"
7. G. Puccini, Tosca "Vissi d'arte..."
8. G. Verdi, Il Trovatore "Tacea la notte..."
9. C. Saint - Saens, Samson et Dalila "Mon Coeur s'ouvre a ta voix..."
10. V. Bellini, La sonnambula "Ah! non credea mirati"
11. A Catalani, La Wally "Ebben... Ne andro lontana"

Отчёт EAC

Exact Audio Copy V0.99 prebeta 4 from 23. January 2008
Отчёт EAC об извлечении, выполненном 4. апреля 2009, 1:24
Elena Grebenjuk / Le forze del destino
Дисковод: ASUS DRW-1814BL Adapter: 1 ID: 0
Режим чтения : Достоверность
Использование точного потока : Да
Отключение кэша аудио : Да
Использование указателей C2 : Нет
Коррекция смещения при чтении : 6
Способность читать области Lead-in и Lead-out : Нет
Заполнение пропущенных сэмплов тишиной : Да
Удаление блоков с тишиной в начале и конце : Нет
При вычислениях CRC использовались нулевые сэмплы : Да
Интерфейс : Установленный внешний ASPI-интерфейс
Выходной формат : Внутренние WAV-операции
Формат сэмплов : 44.100 Гц; 16 бит; стерео
TOC извлечённого CD
Трек | Старт | Длительность | Начальный сектор | Конечный сектор
---------------------------------------------------------------------
1 | 0:00.00 | 1:54.74 | 0 | 8623
2 | 1:54.74 | 3:44.50 | 8624 | 25473
3 | 5:39.49 | 2:18.00 | 25474 | 35823
4 | 7:57.49 | 3:21.26 | 35824 | 50924
5 | 11:19.00 | 2:54.57 | 50925 | 64031
6 | 14:13.57 | 5:54.37 | 64032 | 90618
7 | 20:08.19 | 2:57.36 | 90619 | 103929
8 | 23:05.55 | 4:27.10 | 103930 | 123964
9 | 27:32.65 | 4:24.04 | 123965 | 143768
10 | 31:56.69 | 4:17.40 | 143769 | 163083
11 | 36:14.34 | 4:01.14 | 163084 | 181172
Характеристики диапазона извлечения и сообщения об ошибках
Выбранный диапазон
Имя файла I:\Music\Music for Andre\Temp\Новая папка\Новая папка\Elena Grebenjuk - Le forze del destino.wav
Пиковый уровень 98.8 %
Качество диапазона 100.0 %
CRC копии 5216045B
Копирование... OK
Ошибок не произошло
Конец отчёта



Показать сообщения:    

Текущее время: 08-Дек 21:07

Часовой пояс: UTC + 3


Вы не можете начинать темы
Вы не можете отвечать на сообщения
Вы не можете редактировать свои сообщения
Вы не можете удалять свои сообщения
Вы не можете голосовать в опросах
Вы не можете прикреплять файлы к сообщениям
Вы не можете скачивать файлы