(Funk/Rock) Rhythm & Bluefield Band - Reclassified; Clazzual Sax 2 - 1995, FLAC (image+.cue), lossless


 

[Цитировать]

Rhythm & Bluefield Band - Reclassified; Clazzual Sax 2
Жанр: Funk/Rock
Год выпуска диска: 1995
Производитель диска: USA
Аудио кодек: FLAC
Тип рипа: image+.cue
Битрейт аудио: lossless
Продолжительность: 51:02
Трэклист:
1 Traumerai - Schumann 5:18
2 Nocturne in F Min. (Opus 55, No. 1) - Chopin 4:15
3 Washington Post - Sousa 3:58
4 Symphony, No. 4 in E Min - Brahms 5:01
5 Dance of the Sugar Plum Fairy - Tchaikovsky 5:43
6 Reverie - Debussy 5:24
7 Etude No. 1 in E Minor - Lobos 3:18
8 Vissi d'Arte (Tosca) - Puccini 4:53
9 In the Hall of the Mountain King from "Peer Gynt" - Grieg 3:59
10 Icht Grolle Nicht (Bitterness) - Schumann 4:33
11 Piano Sonata, No. 8 (Pathetique) - Beethoven 4:53
Доп. информация:
David Bluefield - Production, Arrangement, Composition (additional passages), Conception, Piano
Chris Bank - Saxophone, Bass, Blu-Blow Trumpet
Howard Arthur - Guitars
Kirwan Brown - Electric Bass
Tom Hills - Drums, Percusssion
Brian Savage - Flute
Tim Fox - Trumpet, Horns
Steve Cole - Clarinet, Horns
Bill Capps - Cello
Guy Bacon - Classical Guitar
Steve Saylor - Mandolin
Bernie Mysior - Bass

Лог EAC

Exact Audio Copy V0.99 prebeta 4 from 23. January 2008
EAC extraction logfile from 5. April 2009, 0:56
Rhythm & Bluefield Band / Reclassified; Clazzual Sax 2
Used drive : PIONEER DVD-RW DVR-215D Adapter: 2 ID: 0
Read mode : Secure
Utilize accurate stream : Yes
Defeat audio cache : Yes
Make use of C2 pointers : No
Read offset correction : 48
Overread into Lead-In and Lead-Out : No
Fill up missing offset samples with silence : Yes
Delete leading and trailing silent blocks : No
Null samples used in CRC calculations : Yes
Used interface : Installed external ASPI interface
Used output format : Internal WAV Routines
Sample format : 44.100 Hz; 16 Bit; Stereo
TOC of the extracted CD
Track | Start | Length | Start sector | End sector
---------------------------------------------------------
1 | 0:00.00 | 5:18.30 | 0 | 23879
2 | 5:18.30 | 4:15.25 | 23880 | 43029
3 | 9:33.55 | 3:58.65 | 43030 | 60944
4 | 13:32.45 | 5:01.17 | 60945 | 83536
5 | 18:33.62 | 5:43.48 | 83537 | 109309
6 | 24:17.35 | 5:24.22 | 109310 | 133631
7 | 29:41.57 | 3:18.18 | 133632 | 148499
8 | 33:00.00 | 4:53.65 | 148500 | 170539
9 | 37:53.65 | 3:59.47 | 170540 | 188511
10 | 41:53.37 | 4:33.38 | 188512 | 209024
11 | 46:27.00 | 4:53.07 | 209025 | 231006
Range status and errors
Selected range
Filename F:\capture\audio\Rhythm & Bluefield Band - Reclassified; Clazzual Sax 2.wav
Peak level 100.0 %
Range quality 100.0 %
Copy CRC CA06CD4F
Copy OK
No errors occurred
AccurateRip summary
Track 1 not present in database
Track 2 not present in database
Track 3 not present in database
Track 4 not present in database
Track 5 not present in database
Track 6 not present in database
Track 7 not present in database
Track 8 not present in database
Track 9 not present in database
Track 10 not present in database
Track 11 not present in database
None of the tracks are present in the AccurateRip database
End of status report
Буклет внутри.



Показать сообщения:    

Текущее время: 05-Дек 17:31

Часовой пояс: UTC + 3


Вы не можете начинать темы
Вы не можете отвечать на сообщения
Вы не можете редактировать свои сообщения
Вы не можете удалять свои сообщения
Вы не можете голосовать в опросах
Вы не можете прикреплять файлы к сообщениям
Вы не можете скачивать файлы