(Classical) Mario Castelnuovo-Tedesco - Shakespeare Overtures • 2 - West Australian Symphony Orchestra, Andrew Penny - 2010, FLAC (image+.cue) lossless


 

[Цитировать]

Mario Castelnuovo-Tedesco - Shakespeare Overtures • 2 - West Australian Symphony Orchestra, Andrew Penny
Жанр: Classical
Год издания диска: 2010
Издатель (лейбл): Naxos
Номер по каталогу: 8.572501
Дата записи: 1994
Аудиокодек: FLAC
Тип рипа: image+.cue
Битрейт аудио: lossless
Продолжительность: 59:12
Источник: собственный рип
Наличие сканов в содержимом раздачи: да
Треклист:
Mario Castelnuovo-Tedesco (1895-1968)
[1] As You Like It, Op. 166*
[2] Il mercante di Venezia (The Merchant of Venice), Op. 76*
[3] Much Ado about Nothing, Op. 164
[4] King John, Op. 111*
[5] Il racconto d’inverno (The Winter’s Tale), Op. 80*
*WORLD PREMIERE RECORDINGS
Исполнители:
West Australian Symphony Orchestra
Andrew Penny

Лог создания рипа

Exact Audio Copy V1.1 from 23. June 2015
EAC extraction logfile from 7. October 2015, 20:24
West Australian Symphony Orchestra, Andrew Penny / Castelnuovo-Tedesco - Shakespeare Overtures 2
Used drive : HL-DT-STDVDRAM GU70N Adapter: 1 ID: 0
Read mode : SecureUtilize accurate stream : YesDefeat audio cache : YesMake use of C2 pointers : No
Read offset correction : 48Overread into Lead-In and Lead-Out : NoFill up missing offset samples with silence : YesDelete leading and trailing silent blocks : NoNull samples used in CRC calculations : YesUsed interface : Native Win32 interface for Win NT & 2000
Used output format : User Defined EncoderSelected bitrate : 128 kBit/sQuality : HighAdd ID3 tag : NoCommand line compressor : C:\Program Files (x86)\Exact Audio Copy\Flac\flac.exeAdditional command line options : -V -8 -T "Date=%year%" -T "Genre=%genre%" %source%
TOC of the extracted CD
Track | Start | Length | Start sector | End sector --------------------------------------------------------- 1 | 0:00.00 | 12:00.71 | 0 | 54070 2 | 12:00.71 | 15:07.50 | 54071 | 122145 3 | 27:08.46 | 10:12.50 | 122146 | 168095 4 | 37:21.21 | 8:23.01 | 168096 | 205821 5 | 45:44.22 | 13:25.53 | 205822 | 266249
Range status and errors
Selected range
Filename C:\temp\Castelnuovo-Tedesco - Shakespeare Overtures - 2\Castelnuovo-Tedesco - Shakespeare Overtures 2.wav
Peak level 100.0 % Extraction speed 5.1 X Range quality 100.0 % Test CRC 98AB22BC Copy CRC 98AB22BC Copy OK
No errors occurred
AccurateRip summary
Track 1 accurately ripped (confidence 3) [022C96FE] (AR v2)Track 2 accurately ripped (confidence 3) [C4AC8690] (AR v2)Track 3 accurately ripped (confidence 3) [2647A76B] (AR v2)Track 4 accurately ripped (confidence 3) [E5A0EE41] (AR v2)Track 5 accurately ripped (confidence 3) [D5D3C27E] (AR v2)
All tracks accurately ripped
End of status report
==== Log checksum A1A6C6F34BC030232397218A8316B8C781DB02C3DB5CEE8C4DBBD31B431CB1B6 ====



Показать сообщения:    

Текущее время: 05-Дек 03:31

Часовой пояс: UTC + 3


Вы не можете начинать темы
Вы не можете отвечать на сообщения
Вы не можете редактировать свои сообщения
Вы не можете удалять свои сообщения
Вы не можете голосовать в опросах
Вы не можете прикреплять файлы к сообщениям
Вы не можете скачивать файлы