Женщина из Роуз Хилл / La femme de Rose Hill (Ален Таннер / Alain Tanner) [1989, Франция, Швейцария, драма, DVDRip] MVO (РенТВ)


Статистика раздачи [Обновить пиров]
Размер:  1.45 GB   |    Зарегистрирован:  1 год 3 месяца   |    Скачан:  0 раз

Полного источника не было: Никогда

 
   
 
 
 

[Цитировать]

Женщина из Роуз Хилл / La femme de Rose Hill
Страна: Франция, Швейцария
Жанр: драма
Год выпуска: 1989
Продолжительность: 01:31:19
Перевод: Профессиональный (многоголосый закадровый) РенТВ
Cубтитры: нет
Оригинальная аудиодорожка: нет
Режиссер: Ален Таннер / Alain Tanner
В ролях: Мари Гайдю, Жан-Филипп Экоффе, Дениз Перон, Роже Жендли, Люба Герчикофф
О фильме: Жюли – молодая женщина, живущая в Роуз Хилл на острове Маврикий. Она появляется в швейцарской деревне и выходит замуж за своего партнера по переписке Марселя. Она чувствует себя несчастной, пока не встречает молодого человека по имени Жан. Но его отец категорически против их встреч...
Доп. информация: http://www.imdb.com/title/tt0097347/
Сэмпл: http://sendfile.su/1164813
Качество видео: DVDRip
Формат видео: AVI
Видео: 688x464 (1.48:1), 25 fps, XviD build 73 ~2074 kbps avg, 0.26 bit/pixel
Аудио: 48 kHz, AC3 Dolby Digital, 2/0 (L,R) ch, ~192 kbps avg

MediaInfo

Общее
Полное имя : H:\Фильмы\Женщина из Роуз Хилл\La.Femme.De.Rose.Hill.1989.DVDRip.avi
Формат : AVI
Формат/Информация : Audio Video Interleave
Размер файла : 1,45 Гбайт
Продолжительность : 1 ч. 31 м.
Общий поток : 2276 Кбит/сек
Библиотека кодирования : VirtualDub build 35491/release
Видео
Идентификатор : 0
Формат : MPEG-4 Visual
Профиль формата : Advanced Simple@L5
Параметр BVOP формата : 1
Параметр QPel формата : Нет
Параметр GMC формата : Без точки перехода
Параметр матрицы формата : Выборочная
Идентификатор кодека : XVID
Идентификатор кодека/Подсказка : XviD
Продолжительность : 1 ч. 31 м.
Битрейт : 2074 Кбит/сек
Ширина : 688 пикселей
Высота : 464 пикселя
Соотношение сторон : 3:2
Частота кадров : 25,000 кадров/сек
Цветовое пространство : YUV
Субдискретизация насыщенности : 4:2:0
Битовая глубина : 8 бит
Тип развёртки : Прогрессивная
Метод сжатия : С потерями
Бит/(Пиксели*Кадры) : 0.260
Размер потока : 1,32 Гбайт (91%)
Библиотека кодирования : XviD 73
Аудио
Идентификатор : 1
Формат : AC-3
Формат/Информация : Audio Coding 3
Расширение режима : CM (complete main)
Параметр Endianness формата : Big
Идентификатор кодека : 2000
Продолжительность : 1 ч. 31 м.
Вид битрейта : Постоянный
Битрейт : 192 Кбит/сек
Каналы : 2 канала
Расположение каналов : Front: L R
Частота : 48,0 КГц
Метод сжатия : С потерями
Размер потока : 125 Мбайт (8%)
Выравнивание : Соединение по промежуткам
Продолжительность промежутка : 40 мс. (1,00 видеокадр)
Время предзагрузки промежутка : 512 мс.
[teatrix.ru].t8682.torrent 
Торрент: Зарегистрирован [ 2015-10-15 16:56 ] · 101E94B08A6AF2D3939BD7C2697354B28C25FFF8

Скачать .torrent

Скачать

15 KB

Статус: проверено
Скачан: 0 раз
Размер: 1.45 GB
terms.php



Быстрый ответ

Имя:

      
Для отправки сообщений необходимо включить JavaScript
Показать сообщения:    

Текущее время: 24-Янв 00:00

Часовой пояс: UTC + 3


Вы можете начинать темы
Вы можете отвечать на сообщения
Вы не можете редактировать свои сообщения
Вы не можете удалять свои сообщения
Вы не можете голосовать в опросах
Вы не можете прикреплять файлы к сообщениям
Вы можете скачивать файлы