Держите язык за зубами, мадемуазель / Покажите язык, мадемуазель / Tirez la langue, mademoiselle (Аксель Ропер / Axelle Ropert) [2013, Франция, драма, комедия, WEB-DLRip] MVO (1 канал) + Original Fre


Статистика раздачи [Обновить пиров]
Размер:  1.46 GB   |    Зарегистрирован:  1 год 1 месяц   |    Скачан:  0 раз

Полного источника не было: Никогда

 
   
 
 
 

[Цитировать]

Держите язык за зубами, мадемуазель / Покажите язык, мадемуазель / Tirez la langue, mademoiselle
Страна: Франция
Жанр: драма, комедия
Год выпуска: 2013
Продолжительность: 01:35:38
Перевод: Профессиональный (многоголосый закадровый) 1 канал
Cубтитры: нет
Оригинальная аудиодорожка: французский
Режиссер: Аксель Ропер / Axelle Ropert
В ролях: Cедрик Кан,Лоран Стокер, Луиз Бургуан, Серж Бозон, Жиль Гастон-Дрейфус, Жан-Пьерр Пети, Клоэ Эсдраффо
Описание: Братья Борис и Дмитрий Пизарник работают вместе врачами в Китайском квартале Парижа, посвящая все свое время своим пациентам. Однажды ночью им приходится оказать помощь маленькой девочке, больной диабетом, которую Жюдит, ее мама, воспитывает сама. Оба брата влюбляются в Жюдит. Мир полностью переворачивается для них…
Сэмпл: http://multi-up.com/1071366
Качество видео: WEB-DLRip
Формат видео: AVI
Видео: MPEG4, XviD, 720x432 (1.667), 25.000 fps, 1 588 Kbps (0.204 bit/pixel)
Аудио: AC-3, 48.0 KHz, 2 ch, 192 Kbps, CBR - русский
Аудио 2: AC-3, 48.0 KHz, 6 ch, 384 Kbps, CBR - французский

MediaInfo

Общее
Полное имя : K:\Покажите язык, мадемуазель.avi
Формат : AVI
Формат/Информация : Audio Video Interleave
Размер файла : 1,46 Гбайт
Продолжительность : 1 ч. 35 м.
Общий поток : 2178 Кбит/сек
Название фильма : Держите язык за зубами, мадемуазель / Покажите язык, мадемуазель / Tirez la langue, mademoiselle (2013)
Программа кодирования : VirtualDubMod 1.5.10.2 (build 2540/release)
Библиотека кодирования : VirtualDubMod build 2540/release
Авторское право : miha2154
Видео
Идентификатор : 0
Формат : MPEG-4 Visual
Профиль формата : Advanced Simple@L5
Параметр BVOP формата : 1
Параметр QPel формата : Нет
Параметр GMC формата : Без точки перехода
Параметр матрицы формата : Выборочная
Идентификатор кодека : XVID
Идентификатор кодека/Подсказка : XviD
Продолжительность : 1 ч. 35 м.
Битрейт : 1588 Кбит/сек
Ширина : 720 пикселей
Высота : 432 пикселя
Соотношение сторон : 5:3
Частота кадров : 25,000 кадров/сек
Цветовое пространство : YUV
Субдискретизация насыщенности : 4:2:0
Битовая глубина : 8 бит
Тип развёртки : Прогрессивная
Метод сжатия : С потерями
Бит/(Пиксели*Кадры) : 0.204
Размер потока : 1,06 Гбайт (73%)
Библиотека кодирования : XviD 65
Аудио #1
Идентификатор : 1
Формат : AC-3
Формат/Информация : Audio Coding 3
Расширение режима : CM (complete main)
Параметр Endianness формата : Big
Идентификатор кодека : 2000
Продолжительность : 1 ч. 35 м.
Вид битрейта : Постоянный
Битрейт : 192 Кбит/сек
Каналы : 2 канала
Расположение каналов : Front: L R
Частота : 48,0 КГц
Метод сжатия : С потерями
Размер потока : 131 Мбайт (9%)
Выравнивание : Разделение по промежуткам
Продолжительность промежутка : 40 мс. (1,00 видеокадр)
Время предзагрузки промежутка : 500 мс.
Заголовок : Профессиональный (многоголосый закадровый) 1 канал
Аудио #2
Идентификатор : 2
Формат : AC-3
Формат/Информация : Audio Coding 3
Расширение режима : CM (complete main)
Параметр Endianness формата : Big
Идентификатор кодека : 2000
Продолжительность : 1 ч. 35 м.
Вид битрейта : Постоянный
Битрейт : 384 Кбит/сек
Каналы : 6 каналов
Расположение каналов : Front: L C R, Side: L R, LFE
Частота : 48,0 КГц
Метод сжатия : С потерями
Размер потока : 263 Мбайт (18%)
Выравнивание : Разделение по промежуткам
Продолжительность промежутка : 40 мс. (1,00 видеокадр)
Время предзагрузки промежутка : 500 мс.
Заголовок : Французский

Скриншоты


[teatrix.ru].t8683.torrent 
Торрент: Зарегистрирован [ 2015-10-15 16:56 ] · 8701FD7E9B35413EBCF6E5604175321DFFD59CE7

Скачать .torrent

Скачать

15 KB

Статус: проверено
Скачан: 0 раз
Размер: 1.46 GB
terms.php



Быстрый ответ

Имя:

      
Для отправки сообщений необходимо включить JavaScript
Показать сообщения:    

Текущее время: 08-Дек 12:51

Часовой пояс: UTC + 3


Вы можете начинать темы
Вы можете отвечать на сообщения
Вы не можете редактировать свои сообщения
Вы не можете удалять свои сообщения
Вы не можете голосовать в опросах
Вы не можете прикреплять файлы к сообщениям
Вы можете скачивать файлы