(Opera) Menotti - Amahl and the Night Visitors • My Christmas (Gunlogson, Hawkersmith, Anthony, LeFan - Nashville Symphony Orchestra & Chorus, Mabry, Willis) - 2008, APE (image+.cue) lossless


 

[Цитировать]

Gian Carlo Menotti - Amahl and the Night Visitors • My Christmas
Жанр: Opera
Страна-производитель диска: Canada
Год издания диска: 2008
Издатель (лейбл): Naxos
Номер по каталогу: 8.669019
Дата записи: 2006-2007
Аудиокодек: APE
Тип рипа: image+.cue
Битрейт аудио: lossless
Продолжительность: 61'36
Источник: собственный рип
Наличие сканов в содержимом раздачи: да
Треклист:
Amahl and the Night Visitors
1. Amahl! Amahl!
2. Oh, Mother, you should go out and see!
3. Stop bothering me!
4. Poor Amahl! Hunger has gone to your head
5. Don't cry, Mother dear
6. From far away we come
7. Amahl… Yes, Mother
8. Good Evening! Good Evening!
9. Come in, Come in!
10. Are you a real king
11. This is my box
12. Amahl, I told you not to be a nuisance!
13. Oh, these beautiful things
14. Have you seen a child
15. Shepherds! Shepherdesses!
16. Emily! Emily!
17. Olives and quinces
18. Shepherds' Dance
19. Thank you, good friends
20. All that gold!
21. Thief! Thief!
22. Don't you dare!
23. Oh, woman, you may keep the gold
24. Oh, no, wait… take back your gold!
25. I walk, mother!
26. Do you really want to go
27. Shepherds, Arise!
My Christmas
28. My Christmas
Исполнители:
Gian Carlo Menotti - Amahl and the Night Visitors • My Christmas
Amahl - Ike Hawkersmith, boy soprano
The Mother - Kirsten Gunlogson, mezzo-soprano
King Kaspar - Dean Anthony, tenor
King Melchior - Todd Thomas, baritone
King Balthazar - Kevin Short, bass / bariton
The Page - Bart LeFan, bariton
Chicago Symphony Chorus
Nashville Symphony Chorus
Nashville Symphony Orchestra
George Mabry - Alastair Willis

Лог создания рипа

Exact Audio Copy V1.0 beta 6 from 9. April 2015
EAC extraction logfile from 21. September 2015, 13:43
Hawkersmith, Gunlogson, Anthony, Thomas_Nashville SO, Willis / Menotti - Amahl and the Night Visitors
Used drive : TSSTcorpCDDVDW SE-208AB Adapter: 1 ID: 2
Read mode : SecureUtilize accurate stream : YesDefeat audio cache : YesMake use of C2 pointers : No
Read offset correction : 6Overread into Lead-In and Lead-Out : NoFill up missing offset samples with silence : YesDelete leading and trailing silent blocks : NoNull samples used in CRC calculations : YesUsed interface : Native Win32 interface for Win NT & 2000
Used output format : Monkey's Audio Lossless EncoderSelected bitrate : High Lossless CompressionQuality : HighAdd ID3 tag : YesCommand line compressor : C:\Program Files (x86)\Exact Audio Copy\MAC\MAC.exe
TOC of the extracted CD
Track | Start | Length | Start sector | End sector --------------------------------------------------------- 1 | 0:00.00 | 3:47.18 | 0 | 17042 2 | 3:47.18 | 1:36.25 | 17043 | 24267 3 | 5:23.43 | 1:03.50 | 24268 | 29042 4 | 6:27.18 | 0:45.04 | 29043 | 32421 5 | 7:12.22 | 2:19.13 | 32422 | 42859 6 | 9:31.35 | 2:21.20 | 42860 | 53454 7 | 11:52.55 | 3:01.23 | 53455 | 67052 8 | 14:54.03 | 1:18.03 | 67053 | 72905 9 | 16:12.06 | 2:00.39 | 72906 | 81944 10 | 18:12.45 | 2:22.68 | 81945 | 92662 11 | 20:35.38 | 1:42.48 | 92663 | 100360 12 | 22:18.11 | 0:37.27 | 100361 | 103162 13 | 22:55.38 | 0:42.66 | 103163 | 106378 14 | 23:38.29 | 4:03.72 | 106379 | 124675 15 | 27:42.26 | 0:19.46 | 124676 | 126146 16 | 28:01.72 | 1:31.03 | 126147 | 132974 17 | 29:33.00 | 1:02.44 | 132975 | 137668 18 | 30:35.44 | 3:19.60 | 137669 | 152653 19 | 33:55.29 | 3:07.03 | 152654 | 166681 20 | 37:02.32 | 2:38.63 | 166682 | 178594 21 | 39:41.20 | 0:18.17 | 178595 | 179961 22 | 39:59.37 | 0:49.05 | 179962 | 183641 23 | 40:48.42 | 1:54.50 | 183642 | 192241 24 | 42:43.17 | 0:36.47 | 192242 | 194988 25 | 43:19.64 | 2:17.36 | 194989 | 205299 26 | 45:37.25 | 1:27.05 | 205300 | 211829 27 | 47:04.30 | 2:04.66 | 211830 | 221195 28 | 49:09.21 | 12:24.54 | 221196 | 277049
Range status and errors
Selected range
Filename D:\EAC\Menotti - Amahl and the Night Visitors.wav
Peak level 97.6 % Extraction speed 3.8 X Range quality 100.0 % Test CRC F09E1501 Copy CRC F09E1501 Copy OK
No errors occurred
AccurateRip summary
Track 1 accurately ripped (confidence 2) [D22B7DA4] (AR v2)Track 2 accurately ripped (confidence 2) [08501F2C] (AR v2)Track 3 accurately ripped (confidence 2) [5E3F57C0] (AR v2)Track 4 accurately ripped (confidence 2) [86B621E5] (AR v2)Track 5 accurately ripped (confidence 2) [9F987B71] (AR v2)Track 6 accurately ripped (confidence 2) [0EAD5DB8] (AR v2)Track 7 accurately ripped (confidence 2) [4D0F0568] (AR v2)Track 8 accurately ripped (confidence 2) [F27BA1B7] (AR v2)Track 9 accurately ripped (confidence 2) [578ECD5D] (AR v2)Track 10 accurately ripped (confidence 2) [D93B24C4] (AR v2)Track 11 accurately ripped (confidence 2) [1FF23CC5] (AR v2)Track 12 accurately ripped (confidence 2) [61446866] (AR v2)Track 13 accurately ripped (confidence 2) [373BA1CE] (AR v2)Track 14 accurately ripped (confidence 2) [502E1FA0] (AR v2)Track 15 accurately ripped (confidence 2) [2BB121EF] (AR v2)Track 16 accurately ripped (confidence 2) [606C8D3C] (AR v2)Track 17 accurately ripped (confidence 2) [ECE1532E] (AR v2)Track 18 accurately ripped (confidence 2) [9F1747F5] (AR v2)Track 19 accurately ripped (confidence 2) [2FBC990E] (AR v2)Track 20 accurately ripped (confidence 2) [FE5D806D] (AR v2)Track 21 accurately ripped (confidence 2) [34C95EA4] (AR v2)Track 22 accurately ripped (confidence 2) [09BDCE08] (AR v2)Track 23 accurately ripped (confidence 2) [60701AF0] (AR v2)Track 24 accurately ripped (confidence 2) [E37B505F] (AR v2)Track 25 accurately ripped (confidence 2) [11EEC7EE] (AR v2)Track 26 accurately ripped (confidence 2) [53CB40D0] (AR v2)Track 27 accurately ripped (confidence 2) [B7ED558B] (AR v2)Track 28 accurately ripped (confidence 2) [C8779013] (AR v2)
All tracks accurately ripped
End of status report
---- CUETools DB Plugin V2.1.6
[CTDB TOCID: qHKWl0rzc8w5JC7xclYEPcK4fyc-] foundSubmit result: qHKWl0rzc8w5JC7xclYEPcK4fyc- has been confirmedTrack | CTDB Status 1 | (3/3) Accurately ripped 2 | (3/3) Accurately ripped 3 | (3/3) Accurately ripped 4 | (3/3) Accurately ripped 5 | (3/3) Accurately ripped 6 | (3/3) Accurately ripped 7 | (3/3) Accurately ripped 8 | (3/3) Accurately ripped 9 | (3/3) Accurately ripped 10 | (3/3) Accurately ripped 11 | (3/3) Accurately ripped 12 | (3/3) Accurately ripped 13 | (3/3) Accurately ripped 14 | (3/3) Accurately ripped 15 | (3/3) Accurately ripped 16 | (3/3) Accurately ripped 17 | (3/3) Accurately ripped 18 | (3/3) Accurately ripped 19 | (3/3) Accurately ripped 20 | (3/3) Accurately ripped 21 | (3/3) Accurately ripped 22 | (3/3) Accurately ripped 23 | (3/3) Accurately ripped 24 | (3/3) Accurately ripped 25 | (3/3) Accurately ripped 26 | (3/3) Accurately ripped 27 | (3/3) Accurately ripped 28 | (3/3) Accurately ripped
==== Log checksum 4038BB26D93C9502B9AD597EA53EF673019611BC72DC30D47A8BCE0250D8CEFD ====

Содержание индексной карты (.CUE)

REM GENRE OperaREM DATE 2008REM DISCID 900E6E1CREM COMMENT "ExactAudioCopy v1.0b6"PERFORMER "Hawkersmith, Gunlogson, Anthony, Thomas_Nashville SO, Willis"TITLE "Menotti - Amahl and the Night Visitors"FILE "Menotti - Amahl and the Night Visitors.ape" WAVE TRACK 01 AUDIO TITLE "Amahl! Amahl! (Mother, Amahl)" PERFORMER "Hawkersmith, Gunlogson, Anthony, Thomas_Nashville SO, Willis" ISRC HKI190849801 INDEX 01 00:00:00 TRACK 02 AUDIO TITLE "Oh, Mother, you should go out and see! (Amahl, Mother)" PERFORMER "Hawkersmith, Gunlogson, Anthony, Thomas_Nashville SO, Willis" ISRC HKI190849802 INDEX 01 03:47:18 TRACK 03 AUDIO TITLE "Stop bothering me! (Mother, Amahl)" PERFORMER "Hawkersmith, Gunlogson, Anthony, Thomas_Nashville SO, Willis" ISRC HKI190849803 INDEX 01 05:23:43 TRACK 04 AUDIO TITLE "Poor Amahl! Hunger has gone to your head (Mother)" PERFORMER "Hawkersmith, Gunlogson, Anthony, Thomas_Nashville SO, Willis" ISRC HKI190849804 INDEX 01 06:27:18 TRACK 05 AUDIO TITLE "Don't cry, Mother dear (Amahl, Mother)" PERFORMER "Hawkersmith, Gunlogson, Anthony, Thomas_Nashville SO, Willis" ISRC HKI190849804 INDEX 01 07:12:22 TRACK 06 AUDIO TITLE "From far away we come (King Kaspar, King Melchior, King Balthazar)" PERFORMER "Hawkersmith, Gunlogson, Anthony, Thomas_Nashville SO, Willis" ISRC HKI190849806 INDEX 01 09:31:35 TRACK 07 AUDIO TITLE "Amahl... Yes, Mother (Mother, Amahl)" PERFORMER "Hawkersmith, Gunlogson, Anthony, Thomas_Nashville SO, Willis" ISRC HKI190849807 INDEX 01 11:52:55 TRACK 08 AUDIO TITLE "Good Evening! Good Evening! (King Kaspar, King Melchior, King Balthazar, Amah..." PERFORMER "Hawkersmith, Gunlogson, Anthony, Thomas_Nashville SO, Willis" ISRC HKI190849808 INDEX 01 14:54:03 TRACK 09 AUDIO TITLE "Come in, Come in! (Mother, King Melchior, Amahl)" PERFORMER "Hawkersmith, Gunlogson, Anthony, Thomas_Nashville SO, Willis" ISRC HKI190849809 INDEX 01 16:12:06 TRACK 10 AUDIO TITLE "Are you a real king? (Amahl, King Balthazar, King Kaspar)" PERFORMER "Hawkersmith, Gunlogson, Anthony, Thomas_Nashville SO, Willis" ISRC HKI190849810 INDEX 01 18:12:45 TRACK 11 AUDIO TITLE "This is my box (King Kaspar)" PERFORMER "Hawkersmith, Gunlogson, Anthony, Thomas_Nashville SO, Willis" ISRC HKI190849811 INDEX 01 20:35:38 TRACK 12 AUDIO TITLE "Amahl, I told you not to be a nuisance! (Mother, Amadl)" PERFORMER "Hawkersmith, Gunlogson, Anthony, Thomas_Nashville SO, Willis" ISRC HKI190849811 INDEX 01 22:18:11 TRACK 13 AUDIO TITLE "Oh, these beautiful things (Mother, King Melchior)" PERFORMER "Hawkersmith, Gunlogson, Anthony, Thomas_Nashville SO, Willis" ISRC HKI190849813 INDEX 01 22:55:38 TRACK 14 AUDIO TITLE "Have you seen a child (King Melchior, Mother, King Balthazar, King Kaspar)" PERFORMER "Hawkersmith, Gunlogson, Anthony, Thomas_Nashville SO, Willis" ISRC HKI190849814 INDEX 01 23:38:29 TRACK 15 AUDIO TITLE "Shepherds! Shepherdesses! (Chorus, Mother, King Melchior)" PERFORMER "Hawkersmith, Gunlogson, Anthony, Thomas_Nashville SO, Willis" ISRC HKI190849815 INDEX 01 27:42:26 TRACK 16 AUDIO TITLE "Emily! Emily! (Chorus, Mother)" PERFORMER "Hawkersmith, Gunlogson, Anthony, Thomas_Nashville SO, Willis" ISRC HKI190849816 INDEX 01 28:01:72 TRACK 17 AUDIO TITLE "Olives and quinces (Chorus, King Kaspar, King Melchior, King Balthazar, Mother)" PERFORMER "Hawkersmith, Gunlogson, Anthony, Thomas_Nashville SO, Willis" ISRC HKI190849817 INDEX 01 29:33:00 TRACK 18 AUDIO TITLE "Shepherds' Dance" PERFORMER "Hawkersmith, Gunlogson, Anthony, Thomas_Nashville SO, Willis" ISRC HKI190849818 INDEX 01 30:35:44 TRACK 19 AUDIO TITLE "Thank you, good friends (King Balthazar, Chorus, Amahl, King Kaspar)" PERFORMER "Hawkersmith, Gunlogson, Anthony, Thomas_Nashville SO, Willis" ISRC HKI190849819 INDEX 01 33:55:29 TRACK 20 AUDIO TITLE "All that gold! (Mother)" PERFORMER "Hawkersmith, Gunlogson, Anthony, Thomas_Nashville SO, Willis" ISRC HKI190849820 INDEX 01 37:02:32 TRACK 21 AUDIO TITLE "Thief! Thief! (Page, King Melchoir, King Balthazar, King Kaspar)" PERFORMER "Hawkersmith, Gunlogson, Anthony, Thomas_Nashville SO, Willis" ISRC HKI190849821 INDEX 01 39:41:20 TRACK 22 AUDIO TITLE "Don't you dare! (Amahl)" PERFORMER "Hawkersmith, Gunlogson, Anthony, Thomas_Nashville SO, Willis" ISRC HKI190849822 INDEX 01 39:59:37 TRACK 23 AUDIO TITLE "Oh, woman, you may keep the gold (King Melchior)" PERFORMER "Hawkersmith, Gunlogson, Anthony, Thomas_Nashville SO, Willis" ISRC HKI190849823 INDEX 01 40:48:42 TRACK 24 AUDIO TITLE "Oh, no, wait... take back your gold! (Mother, Amahl)" PERFORMER "Hawkersmith, Gunlogson, Anthony, Thomas_Nashville SO, Willis" ISRC HKI190849823 INDEX 01 42:43:17 TRACK 25 AUDIO TITLE "I walk, mother! (Amahl, King Kaspar, King Melchior, King Balthazar, Mother, P..." PERFORMER "Hawkersmith, Gunlogson, Anthony, Thomas_Nashville SO, Willis" ISRC HKI190849824 INDEX 01 43:19:64 TRACK 26 AUDIO TITLE "Do you really want to go? (Mother, Amahl, King Kaspar, King Balthazar)" PERFORMER "Hawkersmith, Gunlogson, Anthony, Thomas_Nashville SO, Willis" ISRC HKI190849825 INDEX 01 45:37:25 TRACK 27 AUDIO TITLE "Shepherds, Arise! (Chorus, King Melchior, Amahl)" PERFORMER "Hawkersmith, Gunlogson, Anthony, Thomas_Nashville SO, Willis" ISRC HKI190849826 INDEX 01 47:04:30 TRACK 28 AUDIO TITLE "My Christmas" PERFORMER "Hawkersmith, Gunlogson, Anthony, Thomas_Nashville SO, Willis" ISRC HKI190849828 INDEX 00 49:03:37 INDEX 01 49:09:21
Доп. информация:
Menotti’s Amahl and the Night Visitors, the first opera written for television, enjoys more than five hundred performances annually around the world and is immensely popular with amateur groups. A crippled boy, Amahl, and his mother are visited by the three Kings who seek the newborn Jesus. Deciding to give his crutch to the Christ child, he is miraculously healed, and joyfully accompanies the Kings to give thanks. Sung in English, brimming with tuneful melodies for both soloists and chorus, the opera is a humorous and poignant Christmas classic beloved by people of all ages.
Synopsis
Place: Near Bethlehem.
Time: The first century, just after the birth of Christ
Amahl, a disabled boy who can walk only with a crutch, has a problem with telling tall tales. He is sitting outside playing his shepherd's pipe when his mother calls for him (Amahl! Amahl!). After much persuasion, he enters the house but his mother does not believe him when he tells her there is an amazing star "as big as a window" outside over their roof (O Mother You Should Go Outside; Stop Bothering Me!).
Later that night, Amahl's mother weeps, praying that Amahl not become a beggar (Don't Cry Mother Dear). After bedtime (From Far Away We Come), there is a knock at the door and the mother tells Amahl to go see who it is (Amahl ... Yes Mother!). He is amazed when he sees three splendidly dressed kings (the Magi), one of whom is black. At first the mother does not believe Amahl, but when she goes to the door to see for herself, she is stunned. The Three Kings tell the mother and Amahl they are on a long journey to give gifts to a wondrous Child and they would like to rest at their house, to which the mother agrees (Good Evening!; Come In!), saying that all she can offer is "a cold fireplace and a bed of straw". The mother goes to fetch firewood, and Amahl seizes the opportunity to speak with the kings. King Balthazar answers Amahl's questions about his life as a king and asks what Amahl does. Amahl responds that he was once a shepherd, but his mother had to sell his sheep. Now, he and his mother will have to go begging. Amahl then talks with King Kaspar, who is childlike, eccentric, and a bit deaf. Kaspar shows Amahl his box of magic stones, beads, and licorice, and offers Amahl some of the candy (Are You A Real King?; This is My Box). The mother returns (Amahl, I Told You Not To Be A Nuisance!). Amahl is told to go fetch the neighbors (All These Beautiful Things; Have You Seen a Child?) so the kings may be fed and entertained properly (Shepherds! Shepherds!; Emily! Emily; Olives and Quinces; Dance of the Shepherds).
After the neighbors have left and the kings are resting, the mother attempts to steal for her son some of the kings' gold that was meant for the Christ child (All That Gold). She is thwarted by the kings' page. ("Thief! Thief!") When Amahl wakes to find the page grabbing his mother, he attacks him. ("Don't You Dare!") Seeing Amahl's weak defense of his mother and understanding the motives for the attempted theft, King Melchior says she may keep the gold as the Holy Child will not need earthly power or wealth to build his kingdom. ("Oh, Woman, You Can Keep That Gold") The mother says she has waited all her life for such a king and asks the kings to take back the gold. She wishes to send a gift but has nothing to send. Amahl, too, has nothing to give the Child except his crutch. ("Oh, No, Wait") When he offers it to the kings, his leg is miraculously healed. ("I Walk, Mother") With permission from his mother, he leaves with the kings to see the Child and give his crutch in thanks for being healed.
Among other things, the story is that of a boy growing up. The relationship between Amahl and his mother is informed by the 1950s American family.



Показать сообщения:    

Текущее время: 03-Дек 12:36

Часовой пояс: UTC + 3


Вы не можете начинать темы
Вы не можете отвечать на сообщения
Вы не можете редактировать свои сообщения
Вы не можете удалять свои сообщения
Вы не можете голосовать в опросах
Вы не можете прикреплять файлы к сообщениям
Вы не можете скачивать файлы