Танцуй. Первый сезон. Выпуск 08 (23.05.2015) [2015, Танцевальное шоу, Pop, HDTV 1080i]


 

[Цитировать]

Танцуй. Первый сезон. Выпуск 08 (23.05.2015)
Дата/Год выпуска: 2015
Страна: Россия
Жанр: Танцевальное шоу, Pop
Продолжительность: 02:15:31
Перевод: Не требуется
Русские субтитры: нет
Телеканал: Первый канал
Описание: На Первом канале стартует новое шоу "Танцуй!" — беспрецедентный по размаху всероссийский танцевальный конкурс. Самые яркие участники из разных уголков страны – от Калининграда до Владивостока – окажутся на большой сцене, чтобы на глазах миллионов телезрителей сразиться в грандиозном поединке. Их имена пока не известны широкой публике, у них нет званий и наград, но каждый из них любит и умеет танцевать так, как не каждому дано. При этом всем участникам придется показать свое мастерство в самых разных танцевальных стилях.
Члены жюри: хореограф, основательница и художественный руководитель международного балета TODES Алла Духова, хореограф Раду Поклитару, телеведущий Дмитрий Хрусталев, хореограф Вячеслав Кулаев.
Продюсер и режиссер шоу: Илья Авербух.
Ведущие шоу: Сергей Лазарев и Екатерина Варнава.
Внимание: Увы, в записи присутствует брак!
Доп. информация: Релиз -

Рип чистый. Без посторонних надписей. Выкладывается как есть.
Качество: HDTV 1080i
Контейнер: TS
Видео кодек: AVC
Аудио кодек: MP2
Видео: 1920x1080 (16:9) 25.000 fps ~ 13.5 Mbps, 0.260 bit/pixel
Аудио 1: MPEG Audio 48000Hz stereo 192 Кбит/сек 2 channels
Аудио 2: AC3, 6 channels, 48000Hz, 384 Кбит/сек

Скриншоты


MI

GeneralID : 1 (0x1)Complete name : G:\Танцуй. Первый сезон. Выпуск 08 (23.05.2015) (2015, Pop, Танцевальное шоу, HDTV 1080i) (MYDIMKA).tsFormat : MPEG-TSFile size : 11.2 GiBDuration : 2h 15mnOverall bit rate mode : VariableOverall bit rate : 11.9 Mbps
VideoID : 1603 (0x643)Menu ID : 603 (0x25B)Format : AVCFormat/Info : Advanced Video CodecFormat profile : High@L4.0Format settings, CABAC : YesFormat settings, ReFrames : 3 framesCodec ID : 27Duration : 2h 15mnBit rate : 10.7 MbpsWidth : 1 920 pixelsHeight : 1 080 pixelsDisplay aspect ratio : 16:9Frame rate : 25.000 fpsStandard : ComponentColor space : YUVChroma subsampling : 4:2:0Bit depth : 8 bitsScan type : InterlacedScan order : Top Field FirstBits/(Pixel*Frame) : 0.206Stream size : 10.1 GiB (90%)Color primaries : BT.709Transfer characteristics : BT.709Matrix coefficients : BT.709
Audio #1ID : 2603 (0xA2B)Menu ID : 603 (0x25B)Format : AC-3Format/Info : Audio Coding 3Mode extension : CM (complete main)Format settings, Endianness : BigCodec ID : 6Duration : 2h 15mnBit rate mode : ConstantBit rate : 384 KbpsChannel(s) : 6 channelsChannel positions : Front: L C R, Side: L R, LFESampling rate : 48.0 KHzBit depth : 16 bitsCompression mode : LossyDelay relative to video : -80msStream size : 372 MiB (3%)Language : Russian
Audio #2ID : 2604 (0xA2C)Menu ID : 603 (0x25B)Format : MPEG AudioFormat version : Version 1Format profile : Layer 2Codec ID : 3Duration : 2h 15mnBit rate mode : ConstantBit rate : 192 KbpsChannel(s) : 2 channelsSampling rate : 48.0 KHzCompression mode : LossyDelay relative to video : -80msStream size : 186 MiB (2%)Language : Russian



Показать сообщения:    

Текущее время: 03-Дек 22:44

Часовой пояс: UTC + 3


Вы не можете начинать темы
Вы не можете отвечать на сообщения
Вы не можете редактировать свои сообщения
Вы не можете удалять свои сообщения
Вы не можете голосовать в опросах
Вы не можете прикреплять файлы к сообщениям
Вы не можете скачивать файлы