Танцуй . Первый сезон . Выпуск 1 (14.02.2015) [2015, Танцевальное шоу, Pop, HDTVRip 720p]


 

[Цитировать]

Танцуй. Первый сезон. Выпуск 01 (14.02.2015)
Дата/Год выпуска: 2015
Страна: Россия
Жанр: Танцевальное шоу, Pop
Продолжительность: 02:03:58
Перевод: Не требуется
Русские субтитры: нет
Телеканал: Первый канал
Описание: На Первом канале стартует новое шоу "Танцуй!" — беспрецедентный по размаху всероссийский танцевальный конкурс. Самые яркие участники из разных уголков страны – от Калининграда до Владивостока – окажутся на большой сцене, чтобы на глазах миллионов телезрителей сразиться в грандиозном поединке. Их имена пока не известны широкой публике, у них нет званий и наград, но каждый из них любит и умеет танцевать так, как не каждому дано. При этом всем участникам придется показать свое мастерство в самых разных танцевальных стилях.
Члены жюри: хореограф, основательница и художественный руководитель международного балета TODES Алла Духова, хореограф Раду Поклитару, телеведущий Дмитрий Хрусталев, хореограф Вячеслав Кулаев.
Продюсер и режиссер шоу: Илья Авербух.
Ведущие шоу: Сергей Лазарев и Екатерина Варнава.
Качество: HDTVRip 720p
Контейнер: MKV
Видео кодек: AVC
Аудио кодек: AC3
Видео: 1280x720 (16:9) 25.000 fps ~ 4.6 Mbps, 0.2 bit/pixel
Аудио 1: AC3, 6 channels, 48000Hz, 384 Кбит/сек

MI

Общее
Уникальный идентификатор : 195775668602000147253475623706424082708 (0x934905B2753D076EADDC3C5787DD8114)
Полное имя : H:\трекер\Танцуй.S1E01(14.02.2015).mkv
Формат : Matroska
Версия формата : Version 4 / Version 2
Размер файла : 4,32 Гбайт
Продолжительность : 2 ч. 3 м.
Общий поток : 4990 Кбит/сек
Название фильма : Танцуй Первый сезон. Выпуск 01 (14.02.2015) -B@ZILI0-
Дата кодирования : UTC 2015-03-29 17:00:36
Программа кодирования : mkvmerge v7.8.0 ('River Man') 64bit built on Mar 27 2015 16:31:37
Библиотека кодирования : libebml v1.3.1 + libmatroska v1.4.2
Attachements : cover.png
DURATION : 02:03:58.496000000
NUMBER_OF_FRAMES : 232453
NUMBER_OF_BYTES : 357047808
_STATISTICS_WRITING_APP : mkvmerge v7.8.0 ('River Man') 64bit built on Mar 27 2015 16:31:37
_STATISTICS_WRITING_DATE_UTC : 2015-03-29 17:00:36
_STATISTICS_TAGS : BPS DURATION NUMBER_OF_FRAMES NUMBER_OF_BYTES
Видео
Идентификатор : 1
Формат : AVC
Формат/Информация : Advanced Video Codec
Профиль формата : High@L4.0
Параметр CABAC формата : Да
Параметр ReFrames формата : 9 кадров
Идентификатор кодека : V_MPEG4/ISO/AVC
Продолжительность : 2 ч. 3 м.
Битрейт : 4604 Кбит/сек
Ширина : 1280 пикселей
Высота : 720 пикселей
Соотношение сторон : 16:9
Режим частоты кадров : Постоянный
Частота кадров : 25,000 кадров/сек
Цветовое пространство : YUV
Субдискретизация насыщенности : 4:2:0
Битовая глубина : 8 бит
Тип развёртки : Прогрессивная
Бит/(Пиксели*Кадры) : 0.200
Размер потока : 3,90 Гбайт (90%)
Заголовок : Танцуй Первый сезон. Выпуск 01 (14.02.2015) -B@ZILI0-
Библиотека кодирования : x264 core 146 r2538 121396c
Настройки программы : cabac=1 / ref=9 / deblock=1:-1:-1 / analyse=0x3:0x133 / me=umh / subme=11 / psy=1 / psy_rd=1.05:0.00 / mixed_ref=1 / me_range=32 / chroma_me=1 / trellis=2 / 8x8dct=1 / cqm=0 / deadzone=21,11 / fast_pskip=0 / chroma_qp_offset=-2 / threads=6 / lookahead_threads=1 / sliced_threads=0 / nr=0 / decimate=0 / interlaced=0 / bluray_compat=0 / constrained_intra=0 / bframes=8 / b_pyramid=2 / b_adapt=2 / b_bias=0 / direct=3 / weightb=1 / open_gop=0 / weightp=2 / keyint=250 / keyint_min=25 / scenecut=40 / intra_refresh=0 / rc=2pass / mbtree=0 / bitrate=4604 / ratetol=1.0 / qcomp=0.65 / qpmin=0 / qpmax=69 / qpstep=4 / cplxblur=20.0 / qblur=0.5 / ip_ratio=1.40 / pb_ratio=1.30 / aq=1:1.00
Язык : Russian
Default : Да
Forced : Нет
DURATION : 02:03:58.360000000
NUMBER_OF_FRAMES : 185959
NUMBER_OF_BYTES : 4280790674
_STATISTICS_WRITING_APP : mkvmerge v7.8.0 ('River Man') 64bit built on Mar 27 2015 16:31:37
_STATISTICS_WRITING_DATE_UTC : 2015-03-29 17:00:36
_STATISTICS_TAGS : BPS DURATION NUMBER_OF_FRAMES NUMBER_OF_BYTES
Аудио
Идентификатор : 2
Формат : AC-3
Формат/Информация : Audio Coding 3
Расширение режима : CM (complete main)
Параметр Endianness формата : Big
Идентификатор кодека : A_AC3
Продолжительность : 2 ч. 3 м.
Вид битрейта : Постоянный
Битрейт : 384 Кбит/сек
Каналы : 6 каналов
Расположение каналов : Front: L C R, Side: L R, LFE
Частота : 48,0 КГц
Битовая глубина : 16 бит
Метод сжатия : С потерями
Размер потока : 341 Мбайт (8%)
Язык : Russian
Default : Да
Forced : Нет

Скриншоты

Скринлист




Показать сообщения:    

Текущее время: 10-Дек 08:06

Часовой пояс: UTC + 3


Вы не можете начинать темы
Вы не можете отвечать на сообщения
Вы не можете редактировать свои сообщения
Вы не можете удалять свои сообщения
Вы не можете голосовать в опросах
Вы не можете прикреплять файлы к сообщениям
Вы не можете скачивать файлы