Танцы со звездами Выпуск 01 - 05 [2015, Pop, Тв-шоу, HDTVRip 720p] [Россия HD]


 

[Цитировать]

Танцы со звездами Выпуск 01 - 05
Дата/Год выпуска: 2015
Страна: Россия
Жанр: Танцевальное шоу
Продолжительность: 02:44:00 Выпуск
Перевод: Не требуется
Телеканал: Россия HD
Описание: Вновь на паркет выходят звезды телевидения, эстрады, театра и кино! В новом сезоне примут участие 16 звездных пар. Они будут учиться танцевать бальные танцы. В отличие от предыдущих сезонов участвовать в состязании предстоит не только конкурсантам, но и членам жюри! На каждого из судей будет возложена обязанность опекать несколько пар-участниц. Соревнования по традиции будут проходить в прямом эфире.
Участники Ксения Алферова, Екатерина Волкова, Мария Голубкина, Агния Дитковските, Светлана Иванова, Любовь Толкалина, Ирина Пегова, Юля Волкова, Севара, Слава, Татьяна Овсиенко, Екатерина Жаркова, Валерия Гай Германика, Аделина Сотникова
Ведущие: Максим Галкин, Дарья Спиридонова
качество: HDTVRip 720p
формат: MKV
Видео: MPEG-4 AVC , 1280x720 (16:9), 25.000 fps, 2 400 Kbps
Аудио: AC3, 2 ch, 48 kHz, 192 kbps
Продолжение здесь
http://teatrix.ru/viewtopic.php?t=8695

MediaInfo

GeneralUnique ID : 235540628633609221475447949476113294434 (0xB133799852E215F5ABE6BA2848BA2462)Complete name : Q:\ДИСК-1\Танцы со звездами Выпуск 01 от 2015.02.14_720_by kuzmichm2196.mkvFormat : MatroskaFormat version : Version 2File size : 2.99 GiBDuration : 2h 44mnOverall bit rate : 2 594 KbpsEncoded date : UTC 2015-02-15 21:40:42Writing application : mkvmerge v5.5.0 ('Healer') built on Apr 24 2012 23:47:03Writing library : libebml v1.2.3 + libmatroska v1.3.0
VideoID : 1Format : AVCFormat/Info : Advanced Video CodecFormat profile : High@L4.1Format settings, CABAC : YesFormat settings, ReFrames : 8 framesCodec ID : V_MPEG4/ISO/AVCDuration : 2h 44mnBit rate : 2 400 KbpsWidth : 1 280 pixelsHeight : 720 pixelsDisplay aspect ratio : 16:9Frame rate mode : ConstantFrame rate : 25.000 fpsColor space : YUVChroma subsampling : 4:2:0Bit depth : 8 bitsScan type : ProgressiveBits/(Pixel*Frame) : 0.104Stream size : 2.71 GiB (91%)Writing library : x264 core 124 r2197 69a0443Encoding settings : cabac=1 / ref=8 / deblock=1:-1:-1 / analyse=0x3:0x133 / me=umh / subme=7 / psy=1 / psy_rd=1.00:0.10 / mixed_ref=1 / me_range=16 / chroma_me=1 / trellis=2 / 8x8dct=1 / cqm=0 / deadzone=21,11 / fast_pskip=0 / chroma_qp_offset=-3 / threads=6 / sliced_threads=0 / nr=0 / decimate=1 / interlaced=0 / bluray_compat=0 / constrained_intra=0 / bframes=3 / b_pyramid=2 / b_adapt=2 / b_bias=0 / direct=3 / weightb=1 / open_gop=0 / weightp=2 / keyint=250 / keyint_min=25 / scenecut=40 / intra_refresh=0 / rc_lookahead=50 / rc=2pass / mbtree=1 / bitrate=2400 / ratetol=1.0 / qcomp=0.60 / qpmin=0 / qpmax=69 / qpstep=4 / cplxblur=20.0 / qblur=0.5 / ip_ratio=1.40 / aq=1:1.00Default : YesForced : No
AudioID : 2Format : AC-3Format/Info : Audio Coding 3Mode extension : CM (complete main)Format settings, Endianness : BigCodec ID : A_AC3Duration : 2h 44mnBit rate mode : ConstantBit rate : 192 KbpsChannel(s) : 2 channelsChannel positions : Front: L RSampling rate : 48.0 KHzBit depth : 16 bitsCompression mode : LossyStream size : 227 MiB (7%)Default : YesForced : No

Скриншоты







Показать сообщения:    

Текущее время: 03-Дек 12:39

Часовой пояс: UTC + 3


Вы не можете начинать темы
Вы не можете отвечать на сообщения
Вы не можете редактировать свои сообщения
Вы не можете удалять свои сообщения
Вы не можете голосовать в опросах
Вы не можете прикреплять файлы к сообщениям
Вы не можете скачивать файлы