Танцуй. Первый сезон. Выпуск 03 (07.03.2015) [2015, Танцевальное шоу, Pop, HDTV 1080i]


 

[Цитировать]

Танцуй. Первый сезон. Выпуск 03 (07.03.2015)
Дата/Год выпуска: 2015
Страна: Россия
Жанр: Танцевальное шоу, Pop
Продолжительность: 02:19:43
Перевод: Не требуется
Русские субтитры: нет
Телеканал: Первый канал
Описание: На Первом канале стартует новое шоу "Танцуй!" — беспрецедентный по размаху всероссийский танцевальный конкурс. Самые яркие участники из разных уголков страны – от Калининграда до Владивостока – окажутся на большой сцене, чтобы на глазах миллионов телезрителей сразиться в грандиозном поединке. Их имена пока не известны широкой публике, у них нет званий и наград, но каждый из них любит и умеет танцевать так, как не каждому дано. При этом всем участникам придется показать свое мастерство в самых разных танцевальных стилях.
Члены жюри: хореограф, основательница и художественный руководитель международного балета TODES Алла Духова, хореограф Раду Поклитару, телеведущий Дмитрий Хрусталев, хореограф Вячеслав Кулаев.
Продюсер и режиссер шоу: Илья Авербух.
Ведущие шоу: Сергей Лазарев и Екатерина Варнава.
Доп. информация: Релиз -

Рип чистый. Без посторонних надписей. Выкладывается как есть.
Качество: HDTV 1080i
Контейнер: TS
Видео кодек: AVC
Аудио кодек: MP2
Видео: 1920x1080 (16:9) 25.000 fps ~ 8 661 Kbps, 0.167 bit/pixel
Аудио: MPEG Audio 48000Hz stereo 192 Кбит/сек 2 channels

Скриншоты

MI

GeneralID : 1 (0x1)Complete name : H:\ВЫКЛАДКА\Танцуй. Первый сезон. Выпуск 03 (07.03.2015) (2015, Pop, Танцевальное шоу, HDTV 1080i) (MYDIMKA).tsFormat : MPEG-TSFile size : 9.09 GiBDuration : 2h 19mnOverall bit rate mode : VariableOverall bit rate : 9 315 Kbps
VideoID : 513 (0x201)Menu ID : 1 (0x1)Format : AVCFormat/Info : Advanced Video CodecFormat profile : High@L4.0Format settings, CABAC : YesFormat settings, ReFrames : 3 framesCodec ID : 27Duration : 2h 19mnBit rate mode : VariableBit rate : 8 661 KbpsMaximum bit rate : 40.0 MbpsWidth : 1 920 pixelsHeight : 1 080 pixelsDisplay aspect ratio : 16:9Frame rate : 25.000 fpsStandard : ComponentColor space : YUVChroma subsampling : 4:2:0Bit depth : 8 bitsScan type : InterlacedScan order : Top Field FirstBits/(Pixel*Frame) : 0.167Stream size : 8.45 GiB (93%)Color primaries : BT.709Transfer characteristics : BT.709Matrix coefficients : BT.709
AudioID : 514 (0x202)Menu ID : 1 (0x1)Format : MPEG AudioFormat version : Version 1Format profile : Layer 2Codec ID : 3Duration : 2h 19mnBit rate mode : ConstantBit rate : 192 KbpsChannel(s) : 2 channelsSampling rate : 48.0 KHzCompression mode : LossyStream size : 192 MiB (2%)



Показать сообщения:    

Текущее время: 10-Дек 07:59

Часовой пояс: UTC + 3


Вы не можете начинать темы
Вы не можете отвечать на сообщения
Вы не можете редактировать свои сообщения
Вы не можете удалять свои сообщения
Вы не можете голосовать в опросах
Вы не можете прикреплять файлы к сообщениям
Вы не можете скачивать файлы