Танцы со звездами Выпуск 04 от 2015.03.07 [2015, Танцевальное шоу, HDTV 1080i] [Россия HD]


 

[Цитировать]

Танцы со звездами Выпуск 04 от 2015.03.07
Дата/Год выпуска: 2015
Страна: Россия
Жанр: Танцевальное шоу
Продолжительность: 02:44:00
Перевод: Не требуется
Телеканал: Россия HD
Описание: Вновь на паркет выходят звезды телевидения, эстрады, театра и кино! В новом сезоне примут участие 16 звездных пар. Они будут учиться танцевать бальные танцы. В отличие от предыдущих сезонов участвовать в состязании предстоит не только конкурсантам, но и членам жюри! На каждого из судей будет возложена обязанность опекать несколько пар-участниц. Соревнования по традиции будут проходить в прямом эфире.
Участники Ксения Алферова, Екатерина Волкова, Мария Голубкина, Агния Дитковските, Светлана Иванова, Любовь Толкалина, Ирина Пегова, Юля Волкова, Севара, Слава, Татьяна Овсиенко, Екатерина Жаркова, Валерия Гай Германика, Аделина Сотникова
Ведущие: Максим Галкин, Дарья Спиридонова
качество: HDTV 1080i
формат: TS
Видео: H264; 1920x1080 (16:9); 25.000 fps; ~7 783 Kbps
Аудио: MPEG Audio 48000Hz stereo 192 Кбит/сек

MediaInfo

GeneralID : 1 (0x1)Complete name : Q:\ДИСК-1\Танцы со звездами Выпуск 04 от 2015.03.07.tsFormat : MPEG-TSFile size : 9.88 GiBDuration : 2h 48mnOverall bit rate mode : VariableOverall bit rate : 8 391 Kbps
VideoID : 2292 (0x8F4)Menu ID : 1 (0x1)Format : AVCFormat/Info : Advanced Video CodecFormat profile : High@L4.0Format settings, CABAC : YesFormat settings, ReFrames : 4 framesCodec ID : 27Duration : 2h 48mnBit rate : 7 783 KbpsWidth : 1 920 pixelsHeight : 1 080 pixelsDisplay aspect ratio : 16:9Frame rate : 25.000 fpsColor space : YUVChroma subsampling : 4:2:0Bit depth : 8 bitsScan type : MBAFFBits/(Pixel*Frame) : 0.150Stream size : 9.16 GiB (93%)
AudioID : 2295 (0x8F7)Menu ID : 1 (0x1)Format : MPEG AudioFormat version : Version 1Format profile : Layer 2Codec ID : 3Duration : 2h 48mnBit rate mode : ConstantBit rate : 192 KbpsChannel(s) : 2 channelsSampling rate : 48.0 KHzCompression mode : LossyStream size : 231 MiB (2%)Language : English

Скриншоты





Показать сообщения:    

Текущее время: 03-Дек 14:37

Часовой пояс: UTC + 3


Вы не можете начинать темы
Вы не можете отвечать на сообщения
Вы не можете редактировать свои сообщения
Вы не можете удалять свои сообщения
Вы не можете голосовать в опросах
Вы не можете прикреплять файлы к сообщениям
Вы не можете скачивать файлы