Танцы со звездами Выпуск 02 от 2015.02.21 [2015, Танцевальное шоу, HDTV 1080i] [Россия HD]


 

[Цитировать]

Танцы со звездами Выпуск 02 от 2015.02.21
Дата/Год выпуска: 2015
Страна: Россия
Жанр: Танцевальное шоу
Продолжительность: 02:44:53
Перевод: Не требуется
Телеканал: Россия HD
Описание: Вновь на паркет выходят звезды телевидения, эстрады, театра и кино! В новом сезоне примут участие 16 звездных пар. Они будут учиться танцевать бальные танцы. В отличие от предыдущих сезонов участвовать в состязании предстоит не только конкурсантам, но и членам жюри! На каждого из судей будет возложена обязанность опекать несколько пар-участниц. Соревнования по традиции будут проходить в прямом эфире.
Участники Ксения Алферова, Екатерина Волкова, Мария Голубкина, Агния Дитковските, Светлана Иванова, Любовь Толкалина, Ирина Пегова, Юля Волкова, Севара, Слава, Татьяна Овсиенко, Екатерина Жаркова, Валерия Гай Германика, Аделина Сотникова
Ведущие: Максим Галкин, Дарья Спиридонова
качество: HDTV 1080i
формат: TS
Видео: H264; 1920x1080 (16:9); 25.000 fps; ~7 813 Kbps
Аудио: MPEG Audio 48000Hz stereo 192 Кбит/сек

MediaInfo

General
ID : 1 (0x1)
Complete name : Q:\ДИСК-1\Танцы со звездами Выпуск 02 от 2015.02.21.ts
Format : MPEG-TS
File size : 9.70 GiB
Duration : 2h 44mn
Overall bit rate mode : Variable
Overall bit rate : 8 418 Kbps
Video
ID : 2292 (0x8F4)
Menu ID : 1 (0x1)
Format : AVC
Format/Info : Advanced Video Codec
Format profile : High@L4.0
Format settings, CABAC : Yes
Format settings, ReFrames : 4 frames
Codec ID : 27
Duration : 2h 44mn
Bit rate : 7 808 Kbps
Width : 1 920 pixels
Height : 1 080 pixels
Display aspect ratio : 16:9
Frame rate : 25.000 fps
Color space : YUV
Chroma subsampling : 4:2:0
Bit depth : 8 bits
Scan type : MBAFF
Bits/(Pixel*Frame) : 0.151
Stream size : 8.99 GiB (93%)
Audio
ID : 2295 (0x8F7)
Menu ID : 1 (0x1)
Format : MPEG Audio
Format version : Version 1
Format profile : Layer 2
Mode : Joint stereo
Mode extension : Intensity Stereo + MS Stereo
Codec ID : 3
Duration : 2h 44mn
Bit rate mode : Constant
Bit rate : 192 Kbps
Channel(s) : 2 channels
Sampling rate : 48.0 KHz
Compression mode : Lossy
Stream size : 226 MiB (2%)
Language : English

Скриншоты





Показать сообщения:    

Текущее время: 10-Дек 17:38

Часовой пояс: UTC + 3


Вы не можете начинать темы
Вы не можете отвечать на сообщения
Вы не можете редактировать свои сообщения
Вы не можете удалять свои сообщения
Вы не можете голосовать в опросах
Вы не можете прикреплять файлы к сообщениям
Вы не можете скачивать файлы