Еврейские танцы в церкви "Источник Жизни" (Санкт-Петербург) [2009-2011, коллекция танцев, DVDRip]


 

[Цитировать]

Еврейские танцы в церкви "Источник Жизни" (Санкт-Петербург) Год выпуска: 2009-2011
Страна: Россия
Жанр: коллекция танцев
Продолжительность: 01:39:16
Описание: Танцы? В церкви? Да ещё и еврейские?
Ну, во-первых, церковь современная, которая выбрала путь сближения с историческими библейскими корнями.
Во-вторых, как ни странно, смотрится всё это очень органично.
Но а если не вдаваться во всякую апологетику, то мы имеем вполне даже нерелигиозную коллекцию хоть и любительских, но очень ярких танцев от задорной Хава Нагилы и шкодного Ади Рана до романтических композиций под нежную музыку с восточными нотками.
качество: DVDRip
формат: AVI
Видео:
Часть-1: AVC, 704x576 (4:3), 1800 Кбит/сек, 25,000 кадров/сек
Часть-2: AVC, 720x576 (4:3), 1828 Кбит/сек, 25,000 кадров/сек
Аудио: MPEG-1 Audio layer 3, 256 Кбит/сек, 2 канала, 44,1 КГц

Треклист

Jewish Dances-1:
1) Ein Lanu al mi lismoh - На кого же нам уповать, как не на Папочку Родного.
2) Hava Nagila
3) Shir Ha-Shirim - Свадебная
4) Halleluya
5) Shalom
6) Blessed is the House of David - Благословение Дому Давидову
7) Adonai, Elohim, Tsebaot
8) Roni, bat Zion - Ликуй, дочь Сиона
9) Rabi Jacob Dance - Танец ребе Иакова
10) While I live - Пока я живу
11) Roni, bat Zion - Ликуй, дочь Сиона
12) Shalom Jerusalem - Мир Иерусалиму
13) Anahnu Maaminim - Мы дети отцов веры
Jewish Dances-2:
1) Blessed are You - Благословен Ты, Господь и Бог наш
2) Rejoyce, Jewish people - Веселись и радуйся
3) Jerusalem Holy Land - Йерушалаим - Святая Земля
4) Vessel Dance - Танец с сосудами
5) V'taher libenu - Очисть наши сердца
6) On your walls - На стенах твоих
7) Dancing on water - Танец на воде
8) Dance - Танец
9) Kumi Ori - Восстань, светись
10) Kneeling - Опускаясь на колени
11) Roni, roni Bat Tzion - Веселись, дочь Сиона
12) Yeshua
13) I can only imagine - Я могу лишь представить
14) Ein Lanu al mi lismoh - На кого же нам уповать, как не на Папочку Родного.

MediaInfo

Общее
Полное имя : C:\РАЗДАЧИ\Jewish Dances at Istochnik Zhizni - St.Petersburg.Russia.DVDRip.2010\Jewish.Dances.at.Istochnik.Zhizni-1.avi
Формат : AVI
Формат/Информация : Audio Video Interleave
Размер файла : 776 Мбайт
Продолжительность : 52 м.
Общий поток : 2059 Кбит/сек
Программа кодирования : Lavf52.93.0
Видео
Идентификатор : 0
Формат : AVC
Формат/Информация : Advanced Video Codec
Профиль формата : High@L3.0
Параметр CABAC формата : Да
Параметр ReFrames формата : 3 кадра
Идентификатор кодека : H264
Продолжительность : 52 м.
Битрейт : 1800 Кбит/сек
Ширина : 704 пикселя
Высота : 576 пикселей
Соотношение сторон : 4:3
Режим частоты кадров : Переменный
Частота кадров : 25,000 кадров/сек
Стандарт вещания : PAL
Цветовое пространство : YUV
Субдискретизация насыщенности : 4:2:0
Битовая глубина : 8 бит
Тип развёртки : Прогрессивная
Бит/(Пиксели*Кадры) : 0.178
Размер потока : 675 Мбайт (87%)
Библиотека кодирования : x264 core 112
Настройки программы : cabac=1 / ref=3 / deblock=1:0:0 / analyse=0x3:0x113 / me=hex / subme=7 / psy=1 / psy_rd=1.00:0.00 / mixed_ref=1 / me_range=16 / chroma_me=1 / trellis=1 / 8x8dct=1 / cqm=0 / deadzone=21,11 / fast_pskip=1 / chroma_qp_offset=-2 / threads=1 / sliced_threads=0 / nr=0 / decimate=1 / interlaced=0 / constrained_intra=0 / bframes=3 / b_pyramid=0 / b_adapt=1 / b_bias=0 / direct=1 / weightb=1 / open_gop=0 / weightp=2 / keyint=250 / keyint_min=25 / scenecut=40 / intra_refresh=0 / rc_lookahead=40 / rc=abr / mbtree=1 / bitrate=1800 / ratetol=1.0 / qcomp=0.60 / qpmin=10 / qpmax=51 / qpstep=4 / ip_ratio=1.41 / aq=1:1.00
Аудио
Идентификатор : 1
Формат : MPEG Audio
Версия формата : Version 1
Профиль формата : Layer 3
Режим : Joint stereo
Расширение режима : MS Stereo
Идентификатор кодека : 55
Идентификатор кодека/Подсказка : MP3
Продолжительность : 52 м.
Вид битрейта : Постоянный
Битрейт : 256 Кбит/сек
Каналы : 2 канала
Частота : 44,1 КГц
Метод сжатия : С потерями
Размер потока : 96,4 Мбайт (12%)
Выравнивание : Соединение по промежуткам
Продолжительность промежутка : 26 мс. (0,65 видеокадр)
Библиотека кодирования : LAME3.98.4
Общее
Полное имя : C:\РАЗДАЧИ\Jewish Dances at Istochnik Zhizni - St.Petersburg.Russia.DVDRip.2010\Jewish.Dances.at.Istochnik.Zhizni-2.avi
Формат : AVI
Формат/Информация : Audio Video Interleave
Размер файла : 695 Мбайт
Продолжительность : 46 м.
Общий поток : 2083 Кбит/сек
Программа кодирования : Lavf52.93.0
Видео
Идентификатор : 0
Формат : AVC
Формат/Информация : Advanced Video Codec
Профиль формата : High@L3.0
Параметр CABAC формата : Да
Параметр ReFrames формата : 3 кадра
Идентификатор кодека : H264
Продолжительность : 46 м.
Битрейт : 1828 Кбит/сек
Ширина : 720 пикселей
Высота : 576 пикселей
Соотношение сторон : 4:3
Режим частоты кадров : Переменный
Частота кадров : 25,000 кадров/сек
Стандарт вещания : PAL
Цветовое пространство : YUV
Субдискретизация насыщенности : 4:2:0
Битовая глубина : 8 бит
Тип развёртки : Прогрессивная
Бит/(Пиксели*Кадры) : 0.176
Размер потока : 605 Мбайт (87%)
Библиотека кодирования : x264 core 112
Настройки программы : cabac=1 / ref=3 / deblock=1:0:0 / analyse=0x3:0x113 / me=hex / subme=7 / psy=1 / psy_rd=1.00:0.00 / mixed_ref=1 / me_range=16 / chroma_me=1 / trellis=1 / 8x8dct=1 / cqm=0 / deadzone=21,11 / fast_pskip=1 / chroma_qp_offset=-2 / threads=1 / sliced_threads=0 / nr=0 / decimate=1 / interlaced=0 / constrained_intra=0 / bframes=3 / b_pyramid=0 / b_adapt=1 / b_bias=0 / direct=1 / weightb=1 / open_gop=0 / weightp=2 / keyint=250 / keyint_min=25 / scenecut=40 / intra_refresh=0 / rc_lookahead=40 / rc=abr / mbtree=1 / bitrate=1828 / ratetol=1.0 / qcomp=0.60 / qpmin=10 / qpmax=51 / qpstep=4 / ip_ratio=1.41 / aq=1:1.00
Аудио
Идентификатор : 1
Формат : MPEG Audio
Версия формата : Version 1
Профиль формата : Layer 3
Режим : Joint stereo
Идентификатор кодека : 55
Идентификатор кодека/Подсказка : MP3
Продолжительность : 46 м.
Вид битрейта : Постоянный
Битрейт : 256 Кбит/сек
Каналы : 2 канала
Частота : 44,1 КГц
Метод сжатия : С потерями
Размер потока : 85,4 Мбайт (12%)
Выравнивание : Соединение по промежуткам
Продолжительность промежутка : 26 мс. (0,65 видеокадр)
Время предзагрузки промежутка : 26 мс.
Библиотека кодирования : LAME



Показать сообщения:    

Текущее время: 10-Дек 07:58

Часовой пояс: UTC + 3


Вы не можете начинать темы
Вы не можете отвечать на сообщения
Вы не можете редактировать свои сообщения
Вы не можете удалять свои сообщения
Вы не можете голосовать в опросах
Вы не можете прикреплять файлы к сообщениям
Вы не можете скачивать файлы