II Международный фестиваль Восточного танца Москва 2007 [2007 г., Танец живота, DVDRip]


 

[Цитировать]

II Международный фестиваль Восточного танца Москва 2007
Год выпуска: 2007
Страна: Россия
Жанр: Танец живота
Продолжительность: 01:04:45
Описание: Запись концерта Ирины Поповой в октябре 2007 года. Это заключительный гала-концерт, где вы снова увидите Ирину и ее друзей. Только такая смелая девушка, как Ирина не боится смешивать стили и выступать в необычном для себя амплуа.
Участники: Попова Ирина, Килинкарова Эллина, Оганян Марина, Дарья Мицкевич, Рябошапка Алексей и другие.
Качество: DVDRip
Формат: AVI
Видео кодек: XviD
Аудио кодек: MP3
Видео: 640x480 (1.33:1), 25 fps, XviD build 50 ~666 kbps avg, 0.09 bit/pixel
Аудио: 48 kHz, MPEG Layer 3, 2 ch, ~128.00 kbps avg

Отчет MediaInfo

General
Complete name : E:\II_Mezhdunarodnyj_festival.avi
Format : AVI
Format/Info : Audio Video Interleave
File size : 372 MiB
Duration : 1h 4mn
Overall bit rate : 804 Kbps
Writing application : VirtualDubMod 1.5.10.2 (build 2540/release)
Writing library : VirtualDubMod build 2540/release
Video
ID : 0
Format : MPEG-4 Visual
Format profile : Advanced Simple@L5
Format settings, BVOP : Yes
Format settings, QPel : No
Format settings, GMC : No warppoints
Format settings, Matrix : Default (MPEG)
Codec ID : XVID
Codec ID/Hint : XviD
Duration : 1h 4mn
Bit rate : 666 Kbps
Width : 640 pixels
Height : 480 pixels
Display aspect ratio : 4:3
Frame rate : 25.000 fps
Resolution : 8 bits
Colorimetry : 4:2:0
Scan type : Progressive
Bits/(Pixel*Frame) : 0.087
Stream size : 309 MiB (83%)
Writing library : XviD 1.2.1 (UTC 2008-12-04)
Audio
ID : 1
Format : MPEG Audio
Format version : Version 1
Format profile : Layer 3
Codec ID : 55
Codec ID/Hint : MP3
Duration : 1h 4mn
Bit rate mode : Constant
Bit rate : 128 Kbps
Channel(s) : 2 channels
Sampling rate : 48.0 KHz
Stream size : 59.3 MiB (16%)
Alignment : Aligned on interleaves
Interleave, duration : 40 ms (1.00 video frame)
Interleave, preload duration : 504 ms
Writing library : LAME3.98r
Encoding settings : -m s -V 4 -q 2 -lowpass 17 -b 128

Скриншоты


Скринлисты

Контрольные суммы / File Hashes

CRC32: 85529D7B
MD5: E8B9A85321510F9A56130A44F3EE6664
SHA-1: 5945C6CD8EE1888DEE797D3131AF0B2E9ABC3068



Показать сообщения:    

Текущее время: 10-Дек 21:36

Часовой пояс: UTC + 3


Вы не можете начинать темы
Вы не можете отвечать на сообщения
Вы не можете редактировать свои сообщения
Вы не можете удалять свои сообщения
Вы не можете голосовать в опросах
Вы не можете прикреплять файлы к сообщениям
Вы не можете скачивать файлы