Саида-Шоу "Арабига" / Arabiga-(Gala Show) Saida [2004, Танец Живота, DVDRip]


 

[Цитировать]

Саида-Шоу "Арабига" / Arabiga-(Gala Show) Saida
Год выпуска: 2004
Страна: Аргентина
Жанр: Танец Живота
Продолжительность: 01:11:14
Перевод: Не требуется
Русские субтитры: нет
Описание: Гала-шоу аргентинской звезды Танца Живота-Саиды.
Дополнительная информация: Примечание: звук с помехами был на оригинальном диске.
Качество: DVDRip
Формат видео: AVI
Видео кодек: XviD
Аудио кодек: MP3
Видео: 720x480, 16:9, 29.970 fps, XviD build 50 ~3364 kbps avg, 0.32 bit/pixel
Аудио: 44.100 kHz, MPEG Layer 3, 2 ch, ~128.00 kbps avg

Отчет MediaInfo

General
Complete name : G:\Arabiga.avi
Format : AVI
Format/Info : Audio Video Interleave
Format profile : OpenDML
File size : 1.74 GiB
Duration : 1h 11mn
Overall bit rate : 3 500 Kbps
Writing application : MEncoder SVN-r29352(20090610-gcc4.3.3)
Writing library : MPlayer
Video
ID : 0
Format : MPEG-4 Visual
Format profile : Advanced Simple@L5
Format settings, BVOP : Yes
Format settings, QPel : No
Format settings, GMC : No warppoints
Format settings, Matrix : Default (H.263)
Codec ID : XVID
Codec ID/Hint : XviD
Duration : 1h 11mn
Bit rate : 3 358 Kbps
Width : 720 pixels
Height : 480 pixels
Display aspect ratio : 16:9
Frame rate : 29.970 fps
Standard : NTSC
Color space : YUV
Chroma subsampling : 4:2:0
Bit depth : 8 bits
Scan type : Progressive
Bits/(Pixel*Frame) : 0.324
Stream size : 1.67 GiB (96%)
Writing library : XviD 1.2.1 (UTC 2008-12-04)
Audio
ID : 1
Format : MPEG Audio
Format version : Version 1
Format profile : Layer 3
Mode : Joint stereo
Mode extension : MS Stereo
Codec ID : 55
Codec ID/Hint : MP3
Duration : 1h 11mn
Bit rate mode : Constant
Bit rate : 128 Kbps
Channel(s) : 2 channels
Sampling rate : 44.1 KHz
Video delay : 33ms
Stream size : 65.2 MiB (4%)
Alignment : Aligned on interleaves
Interleave, duration : 26 ms (0.78 video frame)
Interleave, preload duration : 522 ms

Скриншоты


Скринлисты




Показать сообщения:    

Текущее время: 11-Дек 07:15

Часовой пояс: UTC + 3


Вы не можете начинать темы
Вы не можете отвечать на сообщения
Вы не можете редактировать свои сообщения
Вы не можете удалять свои сообщения
Вы не можете голосовать в опросах
Вы не можете прикреплять файлы к сообщениям
Вы не можете скачивать файлы