Саида в Буэнос-Айрэсе / Saida en Buenos Aires [2007, Танец живота, DVDRip]


 

[Цитировать]

Саида в Буэнос-Айрэсе / Saida en Buenos Aires
Год выпуска: 2007
Страна: Аргентина
Жанр: Танец живота
Перевод: Не требуется
Русские субтитры: нет
Продолжительность: 01:47:54
Описание: Шоу аргентинской танцовщицы Саиды.
Качество: DVDRip
Формат видео: AVI
Видео кодек: XviD
Аудио кодек: MP3
Видео: 720x480 (1.50:1), 24 fps, XviD build 50 ~1367 kbps avg, 0.16 bit/pixel
Аудио: 44.100 kHz, MPEG Layer 3, 2 ch, ~128.00 kbps avg

Отчет MediaInfo

General
Complete name : G:\Saida en Buenos Aires.avi
Format : AVI
Format/Info : Audio Video Interleave
Format profile : OpenDML
File size : 1.13 GiB
Duration : 5mn 41s
Overall bit rate : 28.5 Mbps
Writing application : MEncoder SVN-r29352(20090610-gcc4.3.3)
Writing library : MPlayer
Video
ID : 0
Format : MPEG-4 Visual
Format profile : Advanced Simple@L5
Format settings, BVOP : Yes
Format settings, QPel : No
Format settings, GMC : No warppoints
Format settings, Matrix : Default (H.263)
Codec ID : XVID
Codec ID/Hint : XviD
Duration : 5mn 41s
Bit rate : 1 368 Kbps
Width : 720 pixels
Height : 480 pixels
Display aspect ratio : 3:2
Frame rate : 24.000 fps
Standard : NTSC
Color space : YUV
Chroma subsampling : 4:2:0
Bit depth : 8 bits
Scan type : Progressive
Bits/(Pixel*Frame) : 0.165
Stream size : 55.6 MiB (5%)
Writing library : XviD 1.2.1 (UTC 2008-12-04)
Audio
ID : 1
Format : MPEG Audio
Codec ID : 55
Codec ID/Hint : MP3
Duration : 5mn 41s
Bit rate : 128 Kbps
Channel(s) : 2 channels
Sampling rate : 44.1 KHz
Stream size : 5.21 MiB (0%)
Alignment : Aligned on interleaves

Скриншоты


Скринлисты




Показать сообщения:    

Текущее время: 05-Дек 23:38

Часовой пояс: UTC + 3


Вы не можете начинать темы
Вы не можете отвечать на сообщения
Вы не можете редактировать свои сообщения
Вы не можете удалять свои сообщения
Вы не можете голосовать в опросах
Вы не можете прикреплять файлы к сообщениям
Вы не можете скачивать файлы