Nour`s Show 2004-2005 / (Татьяна Федяева) Свадьбы [2006, Танец живота, DVD5]


 

[Цитировать]

Nour`s Show 2004-2005 / (Татьяна Федяева) Свадьбы
Страна: Египет
Тематика: танец живота
Тип раздаваемого материала: концерт
Продолжительность: 0:43:53
Год выпуска: 2006
Описание: Сборник выступлений неповторимой Нур на концертах и свадьбах.
Качество : DVD5
Формат: DVD video
Видео кодек: MPEG2
Аудио кодек: LPCM
Видео: 720*576, PAL 4/3, MPEG-2, 25fps, 8 200 Kbps
Аудио: 2 канала, LPCM 2.0, stereo, 48kHz, 1536 Kbps

Отчет MediaInfo

General
Complete name : G:\Nour Fedyaeva Svadiby 2004-2005\VTS_01_1.VOB
Format : MPEG-PS
File size : 1 024 MiB
Duration : 14mn 46s
Overall bit rate : 9 688 Kbps
Video
ID : 224 (0xE0)
Format : MPEG Video
Format version : Version 2
Format profile : Main@Main
Format settings, BVOP : Yes
Format settings, Matrix : Default
Format settings, GOP : M=3, N=13
Duration : 14mn 46s
Bit rate mode : Variable
Bit rate : 8 200 Kbps
Width : 720 pixels
Height : 576 pixels
Display aspect ratio : 4:3
Frame rate : 25.000 fps
Standard : PAL
Color space : YUV
Chroma subsampling : 4:2:0
Bit depth : 8 bits
Scan type : Interlaced
Scan order : Top Field First
Bits/(Pixel*Frame) : 0.791
Stream size : 841 MiB (82%)
Audio
ID : 160 (0xA0)
Format : PCM
Format settings, Endianness : Big
Format settings, Sign : Signed
Muxing mode : DVD-Video
Duration : 14mn 46s
Bit rate mode : Constant
Bit rate : 1 536 Kbps
Channel(s) : 2 channels
Channel positions : Front: L R
Sampling rate : 48.0 KHz
Bit depth : 16 bits
Stream size : 162 MiB (16%)

Скриншоты


Скринлисты




Показать сообщения:    

Текущее время: 07-Дек 15:30

Часовой пояс: UTC + 3


Вы не можете начинать темы
Вы не можете отвечать на сообщения
Вы не можете редактировать свои сообщения
Вы не можете удалять свои сообщения
Вы не можете голосовать в опросах
Вы не можете прикреплять файлы к сообщениям
Вы не можете скачивать файлы