Мисс беллиданс 2008 [2008 г., Танец живота, DVD5, RUS]


 

[Цитировать]

Мисс беллиданс 2008
Год выпуска: 2008
Страна: Россия
Жанр: Концерт
Продолжительность: 1 час 54 минуты
Язык: Русский
Описание: Наконец-то вышел долгожданный DVD "Мисс Беллиданс 2008"!
Ежегодный Всероссийский Конкурс Красоты среди профессиональных исполнительниц танца живота "Мисс Беллиданс" по праву можно назвать самым ярким мероприятием в российском беллидансе. В отличие от обычных соревнований по танцу живота на Конкурсе Красоты "Мисс Беллиданс" девушек оценивают как по уровню исполнения танца, так и по внешности. На новом DVD вы сможете посмотреть выступления участниц конкурса "Мисс Беллиданс 2008", а также насладиться танцами красивейших звезд танца живота России.
DVD имеет удобное меню, с помощью которого можно посмотреть весь конкурс сразу или выступление любой танцовщицы на выбор. У нового двд очень приятное оформление. Упаковка имеет красивые и качественные иллюстрации. Дизайнеры явно постарались над оформлением, за что им огромное спасибо.

Содержание:

Полуфинал
Маргарита Дарьина
Лариса Чичкан
Анаис
Самия
Сафира
Далийя
Алмазейя
Вероника
Maysoon
Саида
Армина
Светлана
Финал
Вероника
Сафира
Саида
Армина
Маргарита Дарьина
Алмазейя
Maysoon
Анаис
Награждение
Концертная программа
Ирена
Алия
Людмила Шалгачева
Фатима Хабиб
Группа "From Russia With Love"
Роксана Дженид
Презентационный ролик для ДВД: "Мисс Беллиданс 2008"
Качество: DVD5
Формат: DVD Video
Видео кодек: MPEG2
Видео кодек: MPEG Audio
Видео: PAL 4:3 (720x576), 6 000 Kbps, 25.000 fps
Аудио: 48 kHz, Microsoft MPEG, 2 ch, ~224.00 kbps avg

Отчет MediaInfo

General
Complete name : D:\Мисс беллиданс 2008\VIDEO_TS\VTS_01_2.VOB
Format : MPEG-PS
File size : 1 024 MiB
Duration : 33mn 34s
Overall bit rate : 4 264 Kbps
Video
ID : 224 (0xE0)
Format : MPEG Video
Format version : Version 2
Format profile : Main@Main
Format settings, Matrix : Default
Duration : 33mn 34s
Bit rate mode : Variable
Bit rate : 3 870 Kbps
Nominal bit rate : 6 000 Kbps
Width : 720 pixels
Height : 576 pixels
Display aspect ratio : 4:3
Frame rate : 25.000 fps
Standard : PAL
Colorimetry : 4:2:0
Scan type : Interlaced
Scan order : Bottom Field First
Bits/(Pixel*Frame) : 0.373
Stream size : 929 MiB (91%)
Audio
ID : 192 (0xC0)
Format : MPEG Audio
Format version : Version 1
Format profile : Layer 2
Duration : 33mn 34s
Bit rate mode : Constant
Bit rate : 224 Kbps
Channel(s) : 2 channels
Sampling rate : 48.0 KHz
Resolution : 16 bits
Video delay : -456ms
Stream size : 53.8 MiB (5%)

Скриншоты






Показать сообщения:    

Текущее время: 05-Дек 23:40

Часовой пояс: UTC + 3


Вы не можете начинать темы
Вы не можете отвечать на сообщения
Вы не можете редактировать свои сообщения
Вы не можете удалять свои сообщения
Вы не можете голосовать в опросах
Вы не можете прикреплять файлы к сообщениям
Вы не можете скачивать файлы