1-й, 2-й, 3-й Всеукраинский Фестиваль Трайбл Культуры [2007-2009., Танец живота, DVDRip, RUS]


 

[Цитировать]

1-й, 2-й, 3-й Всеукраинский Фестиваль Трайбл Культуры

Год выпуска: 2007-2009
Страна: Украина
Жанр: Tribal/Performance
Продолжительность: 09:06:30
Язык: Русский
Качество: DVDRip
Формат: AVI

Первый Всеукраинский Фестиваль Трайбл Культуры. Киев 11 мая 2007г.

Описание: Школа Tribal Dance и УКРАИНСКАЯ ФЕДЕРАЦИЯ ТАНЦА представляет
Первый Всеукраинский Фестиваль Трайбл Культуры
«Человечество прошло долгий путь эволюции, и чем стремительней оно развивается, тем дальше уходит от своих истоков, корней, культурных ценностей. И на пиковых, переходных, моментах своего существования культура требует обновления.
И то, что мы наблюдаем сегодня, массовое внедрение в современную культуру этнических элементов, не что иное, как этап обновления, происходящий благодаря возвращению к самым глубоким пластам человеческой культуры, к культуре племенных народов.
В салонах тату мы все чаще можем встретить желающих окрасить свое тело в этнические, первобытные татуировки народов мира.
В музыке это проявляется в таких популярных стилях как этно-хаус, электро-трайбл, трайбл-прогрессив.
А в танцевальном мире создаются новые направления, которые являются смесью культурных ценностей разных временных периодов. Трайбл, трайбл-фьюжин, трайбл-фламенко, нейтив-трайбл, нью-эйдж трайбл и т.д.», говорит Наталья Моголивец, единственный на сегодняшний день инструктор танцев в Киеве, преподающая в стиле Трайбл.
В программе вечера: групповые и сольные номера в стиле Трайбл, Трайбл-фьюжин, Трайбл-фламенко, танец с оружием, горячие ритмы живых барабанов, выставка работ художников, живое звучание музыки в стиле электро-трайбл.Tribal fest 1_1

Технические данные

General
Complete name : D:\Tribal fest 1-3\Tribal fest 1_1.avi
Format : AVI
Format/Info : Audio Video Interleave
File size : 701 MiB
Duration : 1h 13mn
Overall bit rate : 1 338 Kbps
Writing application : VirtualDubMod 1.5.10.2 (build 2540/release)
Writing library : VirtualDubMod build 2540/release
Video
ID : 0
Format : MPEG-4 Visual
Format profile : AdvancedSimple@L5
Format settings, BVOP : Yes
Format settings, QPel : No
Format settings, GMC : No warppoints
Format settings, Matrix : Default (MPEG)
Codec ID : XVID
Codec ID/Hint : XviD
Duration : 1h 13mn
Bit rate : 1 200 Kbps
Width : 640 pixels
Height : 480 pixels
Display aspect ratio : 4:3
Frame rate : 25.000 fps
Resolution : 24 bits
Colorimetry : 4:2:0
Scan type : Progressive
Bits/(Pixel*Frame) : 0.156
Stream size : 629 MiB (90%)
Writing library : XviD 1.2.1 (UTC 2008-12-04)
Audio
ID : 1
Format : MPEG Audio
Format version : Version 1
Format profile : Layer 3
Codec ID : 55
Codec ID/Hint : MP3
Duration : 1h 13mn
Bit rate mode : Constant
Bit rate : 128 Kbps
Channel(s) : 2 channels
Sampling rate : 48.0 KHz
Resolution : 16 bits
Stream size : 67.1 MiB (10%)
Alignment : Aligned on interleaves
Interleave, duration : 40 ms (1.00 video frame)
Interleave, preload duration : 504 ms
Writing library : LAME3.98r
Encoding settings : -m s -V 4 -q 2 -lowpass 17 -b 128

Скриншоты


Tribal fest 1_2

Технические данные

General
Complete name : D:\Tribal fest 1-3\Tribal fest 1_2.avi
Format : AVI
Format/Info : Audio Video Interleave
File size : 701 MiB
Duration : 1h 13mn
Overall bit rate : 1 332 Kbps
Writing application : VirtualDubMod 1.5.10.2 (build 2540/release)
Writing library : VirtualDubMod build 2540/release
Video
ID : 0
Format : MPEG-4 Visual
Format profile : AdvancedSimple@L5
Format settings, BVOP : Yes
Format settings, QPel : No
Format settings, GMC : No warppoints
Format settings, Matrix : Default (MPEG)
Codec ID : XVID
Codec ID/Hint : XviD
Duration : 1h 13mn
Bit rate : 1 194 Kbps
Width : 640 pixels
Height : 480 pixels
Display aspect ratio : 4:3
Frame rate : 25.000 fps
Resolution : 24 bits
Colorimetry : 4:2:0
Scan type : Progressive
Bits/(Pixel*Frame) : 0.155
Stream size : 628 MiB (90%)
Writing library : XviD 1.2.1 (UTC 2008-12-04)
Audio
ID : 1
Format : MPEG Audio
Format version : Version 1
Format profile : Layer 3
Codec ID : 55
Codec ID/Hint : MP3
Duration : 1h 13mn
Bit rate mode : Constant
Bit rate : 128 Kbps
Channel(s) : 2 channels
Sampling rate : 48.0 KHz
Resolution : 16 bits
Stream size : 67.3 MiB (10%)
Alignment : Aligned on interleaves
Interleave, duration : 40 ms (1.00 video frame)
Interleave, preload duration : 504 ms
Writing library : LAME3.98r
Encoding settings : -m s -V 4 -q 2 -lowpass 17 -b 128

Скриншоты


Второй Всеукраинский фестиваль Трайбл Культуры. Киев 14 марта 2008г.

Описание: Второй Всеукраинский фестиваль Трайбл культуры состоялся 14 марта 2008 г
Каждый из нас тяготеет к той или иной культурной традиции, каждый ощущает свои корни в той или иной стране
Кого-то пленили африканские ритмы, кого-то монгольская сила, кому-то близки египетские корни, кому-то марокканские, индийские
в ком-то все еще жив дух охотницы, амазонки, жрицы…
но Все Мы – Едины духом, духом Трайбла.
Фестиваль проходит под идеей встречи и знакомства всех кланов Трайбл коллективов Украины и зарубежья,
обменом опыта, продвижения Трайбл культуры в Украине!
Фестиваль будет продолжаться четыре часа.
Два часа – концертная часть в зале, где зритель непосредственно останется зрителем и
два часа концертно-тусовочная, где зрители и выступающие соединятся в одно большое дружественное «племя»
http://www.youtube.com/watch?v=Al_zwtrxzzQ&feature=player_embeddedTribal fest 2_1

Технические данные

General
Complete name : D:\Tribal fest 1-3\Tribal fest 2_1.avi
Format : AVI
Format/Info : Audio Video Interleave
File size : 700 MiB
Duration : 55mn 45s
Overall bit rate : 1 756 Kbps
Writing application : VirtualDubMod 1.5.10.2 (build 2540/release)
Writing library : VirtualDubMod build 2540/release
Video
ID : 0
Format : MPEG-4 Visual
Format profile : AdvancedSimple@L5
Format settings, BVOP : Yes
Format settings, QPel : No
Format settings, GMC : No warppoints
Format settings, Matrix : Default (MPEG)
Codec ID : XVID
Codec ID/Hint : XviD
Duration : 55mn 45s
Bit rate : 1 619 Kbps
Width : 640 pixels
Height : 360 pixels
Display aspect ratio : 16:9
Frame rate : 25.000 fps
Resolution : 24 bits
Colorimetry : 4:2:0
Scan type : Progressive
Bits/(Pixel*Frame) : 0.281
Stream size : 645 MiB (92%)
Writing library : XviD 1.2.1 (UTC 2008-12-04)
Audio
ID : 1
Format : MPEG Audio
Format version : Version 1
Format profile : Layer 3
Codec ID : 55
Codec ID/Hint : MP3
Duration : 55mn 45s
Bit rate mode : Constant
Bit rate : 128 Kbps
Channel(s) : 2 channels
Sampling rate : 48.0 KHz
Resolution : 16 bits
Stream size : 51.0 MiB (7%)
Alignment : Aligned on interleaves
Interleave, duration : 40 ms (1.00 video frame)
Interleave, preload duration : 504 ms
Writing library : LAME3.98r
Encoding settings : -m s -V 4 -q 2 -lowpass 17 -b 128

Скриншоты


Tribal fest 2_2

Технические данные

General
Complete name : D:\Tribal fest 1-3\Tribal fest 2_2.avi
Format : AVI
Format/Info : Audio Video Interleave
File size : 700 MiB
Duration : 51mn 49s
Overall bit rate : 1 889 Kbps
Writing application : VirtualDubMod 1.5.10.2 (build 2540/release)
Writing library : VirtualDubMod build 2540/release
Video
ID : 0
Format : MPEG-4 Visual
Format profile : AdvancedSimple@L5
Format settings, BVOP : Yes
Format settings, QPel : No
Format settings, GMC : No warppoints
Format settings, Matrix : Default (MPEG)
Codec ID : XVID
Codec ID/Hint : XviD
Duration : 51mn 49s
Bit rate : 1 752 Kbps
Width : 640 pixels
Height : 360 pixels
Display aspect ratio : 16:9
Frame rate : 25.000 fps
Resolution : 24 bits
Colorimetry : 4:2:0
Scan type : Progressive
Bits/(Pixel*Frame) : 0.304
Stream size : 649 MiB (93%)
Writing library : XviD 1.2.1 (UTC 2008-12-04)
Audio
ID : 1
Format : MPEG Audio
Format version : Version 1
Format profile : Layer 3
Codec ID : 55
Codec ID/Hint : MP3
Duration : 51mn 49s
Bit rate mode : Constant
Bit rate : 128 Kbps
Channel(s) : 2 channels
Sampling rate : 48.0 KHz
Resolution : 16 bits
Stream size : 47.5 MiB (7%)
Alignment : Aligned on interleaves
Interleave, duration : 40 ms (1.00 video frame)
Interleave, preload duration : 504 ms
Writing library : LAME3.98r
Encoding settings : -m s -V 4 -q 2 -lowpass 17 -b 128

Скриншоты


Tribal fest 2_3

Технические данные

General
Complete name : D:\Tribal fest 1-3\Tribal fest 2_3.avi
Format : AVI
Format/Info : Audio Video Interleave
File size : 700 MiB
Duration : 48mn 11s
Overall bit rate : 2 031 Kbps
Writing application : VirtualDubMod 1.5.10.2 (build 2540/release)
Writing library : VirtualDubMod build 2540/release
Video
ID : 0
Format : MPEG-4 Visual
Format profile : AdvancedSimple@L5
Format settings, BVOP : Yes
Format settings, QPel : No
Format settings, GMC : No warppoints
Format settings, Matrix : Default (MPEG)
Codec ID : XVID
Codec ID/Hint : XviD
Duration : 48mn 11s
Bit rate : 1 894 Kbps
Width : 640 pixels
Height : 360 pixels
Display aspect ratio : 16:9
Frame rate : 25.000 fps
Resolution : 24 bits
Colorimetry : 4:2:0
Scan type : Progressive
Bits/(Pixel*Frame) : 0.329
Stream size : 653 MiB (93%)
Writing library : XviD 1.2.1 (UTC 2008-12-04)
Audio
ID : 1
Format : MPEG Audio
Format version : Version 1
Format profile : Layer 3
Codec ID : 55
Codec ID/Hint : MP3
Duration : 48mn 11s
Bit rate mode : Constant
Bit rate : 128 Kbps
Channel(s) : 2 channels
Sampling rate : 48.0 KHz
Resolution : 16 bits
Stream size : 44.1 MiB (6%)
Alignment : Aligned on interleaves
Interleave, duration : 40 ms (1.00 video frame)
Interleave, preload duration : 504 ms
Writing library : LAME3.98r
Encoding settings : -m s -V 4 -q 2 -lowpass 17 -b 128

Скриншоты


Tribal fest 2_4

Технические данные

General
Complete name : D:\Tribal fest 1-3\Tribal fest 2_4.avi
Format : AVI
Format/Info : Audio Video Interleave
File size : 701 MiB
Duration : 59mn 42s
Overall bit rate : 1 641 Kbps
Writing application : VirtualDubMod 1.5.10.2 (build 2540/release)
Writing library : VirtualDubMod build 2540/release
Video
ID : 0
Format : MPEG-4 Visual
Format profile : AdvancedSimple@L5
Format settings, BVOP : Yes
Format settings, QPel : No
Format settings, GMC : No warppoints
Format settings, Matrix : Default (MPEG)
Codec ID : XVID
Codec ID/Hint : XviD
Duration : 59mn 42s
Bit rate : 1 503 Kbps
Width : 640 pixels
Height : 360 pixels
Display aspect ratio : 16:9
Frame rate : 25.000 fps
Resolution : 24 bits
Colorimetry : 4:2:0
Scan type : Progressive
Bits/(Pixel*Frame) : 0.261
Stream size : 642 MiB (92%)
Writing library : XviD 1.2.1 (UTC 2008-12-04)
Audio
ID : 1
Format : MPEG Audio
Format version : Version 1
Format profile : Layer 3
Codec ID : 55
Codec ID/Hint : MP3
Duration : 59mn 42s
Bit rate mode : Constant
Bit rate : 128 Kbps
Channel(s) : 2 channels
Sampling rate : 48.0 KHz
Resolution : 16 bits
Stream size : 54.7 MiB (8%)
Alignment : Aligned on interleaves
Interleave, duration : 40 ms (1.00 video frame)
Interleave, preload duration : 504 ms
Writing library : LAME3.98r
Encoding settings : -m s -V 4 -q 2 -lowpass 17 -b 128

Скриншоты


Третий Всеукраинский фестиваль Трайбл Культуры. Киев 27 марта 2009г.

Описание: Каждое Племя хранит в своей истории знания о тайнах Вселенной.
Каждый Шаман Племени может одновременно находиться в нескольких временах и пространствах..
Каждая Жрица Племени владеет тайными знаками, которые, как ключи, открывают двери в таинственные миры…
Идея существования запредельных миров волнует человека с давних времен. Абсолют, астрал, незнакомые цивилизации… Есть ли они на самом деле и где их искать – в дали Космоса, или в вековой истории Земли?
Эта загадка заставляет трепетать сердца миллионов людей по всей планете. Хранителями этой тайны являются шаманы и жрицы – сущности, которые могут путешествовать в эти миры. И в этих мирах им не нужны слова. Их слова – это их Танец!
Украинская Федерация Йоги, Украинская Федерация Танца и Школа Трайбл-культуры приглашают вас принять участие в ТРЕТЬЕМ ВСЕУКРАИНСКОМ ФЕСТИВАЛЕ ТРАЙБЛ-КУЛЬТУРЫ «СЕДЬМОЙ ЭЛЕМЕНТ»: Танец как Стихия, который состоится 27 марта 2009 г. в Киеве, в концертном зале "ALLEGRO Hall"
В этом году Фестиваль состоится в формате концерта и масштабной шаманской вечеринки, на которой вы сможете совершить незабываемое путешествие в неизведанные пространства. Вашими проводниками станут взрывные барабанные ритмы, головокружительные танцы жриц и таинственные мистерии шаманов. И пусть вся Галактика увидит Танец Вашего Племени!!!
http://www.youtube.com/watch?v=T-dukyxa13Y&feature=relatedTribal fest 3_1

Технические данные

General
Complete name : D:\Tribal fest 1-3\Tribal fest 3_1.avi
Format : AVI
Format/Info : Audio Video Interleave
File size : 702 MiB
Duration : 1h 27mn
Overall bit rate : 1 121 Kbps
Writing application : VirtualDubMod 1.5.10.2 (build 2540/release)
Writing library : VirtualDubMod build 2540/release
Video
ID : 0
Format : MPEG-4 Visual
Format profile : AdvancedSimple@L5
Format settings, BVOP : Yes
Format settings, QPel : No
Format settings, GMC : No warppoints
Format settings, Matrix : Default (MPEG)
Codec ID : XVID
Codec ID/Hint : XviD
Duration : 1h 27mn
Bit rate : 983 Kbps
Width : 640 pixels
Height : 480 pixels
Display aspect ratio : 4:3
Frame rate : 25.000 fps
Resolution : 24 bits
Colorimetry : 4:2:0
Scan type : Progressive
Bits/(Pixel*Frame) : 0.128
Stream size : 616 MiB (88%)
Writing library : XviD 1.2.1 (UTC 2008-12-04)
Audio
ID : 1
Format : MPEG Audio
Format version : Version 1
Format profile : Layer 3
Codec ID : 55
Codec ID/Hint : MP3
Duration : 1h 27mn
Bit rate mode : Constant
Bit rate : 128 Kbps
Channel(s) : 2 channels
Sampling rate : 48.0 KHz
Resolution : 16 bits
Stream size : 80.2 MiB (11%)
Alignment : Aligned on interleaves
Interleave, duration : 40 ms (1.00 video frame)
Interleave, preload duration : 504 ms
Writing library : LAME3.98r
Encoding settings : -m s -V 4 -q 2 -lowpass 17 -b 128

Скриншоты


Tribal fest 3_2

Технические данные

General
Complete name : D:\Tribal fest 1-3\Tribal fest 3_2.avi
Format : AVI
Format/Info : Audio Video Interleave
File size : 702 MiB
Duration : 1h 36mn
Overall bit rate : 1 016 Kbps
Writing application : VirtualDubMod 1.5.10.2 (build 2540/release)
Writing library : VirtualDubMod build 2540/release
Video
ID : 0
Format : MPEG-4 Visual
Format profile : AdvancedSimple@L5
Format settings, BVOP : Yes
Format settings, QPel : No
Format settings, GMC : No warppoints
Format settings, Matrix : Default (MPEG)
Codec ID : XVID
Codec ID/Hint : XviD
Duration : 1h 36mn
Bit rate : 878 Kbps
Width : 640 pixels
Height : 480 pixels
Display aspect ratio : 4:3
Frame rate : 25.000 fps
Resolution : 24 bits
Colorimetry : 4:2:0
Scan type : Progressive
Bits/(Pixel*Frame) : 0.114
Stream size : 607 MiB (86%)
Writing library : XviD 1.2.1 (UTC 2008-12-04)
Audio
ID : 1
Format : MPEG Audio
Format version : Version 1
Format profile : Layer 3
Codec ID : 55
Codec ID/Hint : MP3
Duration : 1h 36mn
Bit rate mode : Constant
Bit rate : 128 Kbps
Channel(s) : 2 channels
Sampling rate : 48.0 KHz
Resolution : 16 bits
Stream size : 88.5 MiB (13%)
Alignment : Aligned on interleaves
Interleave, duration : 40 ms (1.00 video frame)
Interleave, preload duration : 504 ms
Writing library : LAME3.98r
Encoding settings : -m s -V 4 -q 2 -lowpass 17 -b 128

Скриншоты





Показать сообщения:    

Текущее время: 09-Дек 22:27

Часовой пояс: UTC + 3


Вы не можете начинать темы
Вы не можете отвечать на сообщения
Вы не можете редактировать свои сообщения
Вы не можете удалять свои сообщения
Вы не можете голосовать в опросах
Вы не можете прикреплять файлы к сообщениям
Вы не можете скачивать файлы