Фестиваль восточных танцев "Анатолия" 2-я часть [2009 г., Танец живота, DVDRip]


 

[Цитировать]

Фестиваль восточных танцев "Анатолия" 2-я часть
Год выпуска: 2009
Страна: Россия
Жанр: Performance
Продолжительность: 1:04:07
Описание: Выступления участников и гостей фестиваля: Bellydance, Tribal-Bellydance, индийская тематика, даже Reel (1 выступление).
Конкурс проходил, вероятно, в 2006-ом году. В 2009-ом издан DVD (2 диска с разными параметрами).
DVD5: http://teatrix.ru/viewtopic.php?t=8772
Качество: DVDRip
Формат: AVI

Технические данные

General
Complete name : F:\Фестиваль Анатолия 2009 часть II.avi
Format : AVI
Format/Info : Audio Video Interleave
File size : 782 MiB
Duration : 1h 4mn
Overall bit rate : 1 705 Kbps
Writing application : Lavf51.12.1
Video
ID : 0
Format : MPEG-4 Visual
Codec ID : DIV3
Codec ID/Hint : DivX 3 Low
Duration : 1h 4mn
Bit rate : 1 501 Kbps
Width : 720 pixels
Height : 576 pixels
Display aspect ratio : 5:4
Frame rate : 25.000 fps
Standard : PAL
Resolution : 24 bits
Bits/(Pixel*Frame) : 0.145
Stream size : 688 MiB (88%)
Audio
ID : 1
Format : MPEG Audio
Format version : Version 1
Format profile : Layer 3
Codec ID : 55
Codec ID/Hint : MP3
Duration : 1h 4mn
Bit rate mode : Constant
Bit rate : 192 Kbps
Channel(s) : 2 channels
Sampling rate : 44.1 KHz
Resolution : 16 bits
Stream size : 88.1 MiB (11%)
Alignment : Aligned on interleaves
Interleave, duration : 26 ms (0.65 video frame)
Interleave, preload duration : 26 ms
Writing library : LAME3.97

Скриншоты





Показать сообщения:    

Текущее время: 09-Дек 03:07

Часовой пояс: UTC + 3


Вы не можете начинать темы
Вы не можете отвечать на сообщения
Вы не можете редактировать свои сообщения
Вы не можете удалять свои сообщения
Вы не можете голосовать в опросах
Вы не можете прикреплять файлы к сообщениям
Вы не можете скачивать файлы