Фестиваль восточных танцев "Анатолия" 1-я часть [2009 г., Танец живота, DVDRip]


 

[Цитировать]

Фестиваль восточных танцев "Анатолия" 1-я часть
Год выпуска: 2009
Страна: Россия
Жанр: Performance
Продолжительность: 02:09:19.839 (193996 frames)
Описание: Показательные выступления на фестивале: Bellydance, Tribal-Bellydance.
Конкурс проходил, вероятно, в 2006-ом году. В 2009-ом издан DVD (2 диска с разными параметрами).
DVD5: http://teatrix.ru/viewtopic.php?t=8773
Качество: DVDRip
Формат: AVI
Видео кодек: DivX
Аудио кодек: MP3

Технические данные

General
Complete name : F:\Фестиваль Анатолия 2009 часть I.avi
Format : AVI
Format/Info : Audio Video Interleave
Format profile : OpenDML
File size : 1.54 GiB
Duration : 5h 27mn
Overall bit rate : 674 Kbps
Writing application : Lavf51.12.1
Video
ID : 0
Format : MPEG-4 Visual
Codec ID : DIV3
Codec ID/Hint : DivX 3 Low
Duration : 5h 27mn
Bit rate : 593 Kbps
Width : 720 pixels
Height : 576 pixels
Display aspect ratio : 5:4
Frame rate : 25.000 fps
Standard : PAL
Resolution : 24 bits
Bits/(Pixel*Frame) : 0.057
Stream size : 1.36 GiB (88%)
Audio
ID : 1
Format : MPEG Audio
Format version : Version 1
Format profile : Layer 3
Codec ID : 55
Codec ID/Hint : MP3
Duration : 2h 9mn
Bit rate mode : Constant
Bit rate : 192 Kbps
Channel(s) : 2 channels
Sampling rate : 44.1 KHz
Resolution : 16 bits
Stream size : 178 MiB (11%)
Alignment : Aligned on interleaves
Interleave, duration : 26 ms (0.65 video frame)
Interleave, preload duration : 26 ms
Writing library : LAME3.97

Скриншоты





Показать сообщения:    

Текущее время: 10-Дек 00:22

Часовой пояс: UTC + 3


Вы не можете начинать темы
Вы не можете отвечать на сообщения
Вы не можете редактировать свои сообщения
Вы не можете удалять свои сообщения
Вы не можете голосовать в опросах
Вы не можете прикреплять файлы к сообщениям
Вы не можете скачивать файлы